Tags
Language
Tags

Masterclass - David Lynch Teaches Creativity and Film (2019)

Posted By: notbanned
1080p (FullHD) / HDTV
Masterclass - David Lynch Teaches Creativity and Film (2019)

Masterclass - David Lynch Teaches Creativity and Film (2019)
HDTV | 1920x1080 | .MKV/AVC @ 4982 Kbps | 13x~24min | 6.65 GiB
Audio: English AAC 192 kbps, 2 channels | Subs: None
Genre: Documentary

An avant-garde figure in filmmaking, David Lynch introduced mainstream audiences to art-house films. Now the Oscar-nominated director of Mulholland Drive teaches his cross-disciplinary creative process. Learn how he catches ideas, translates them into a narrative, and moves beyond formulaic storytelling. Embrace the art life in David’s MasterClass and learn to test the boundaries of your own artistic expression in any medium.

Masterclass - David Lynch
01 - Introduction - The Art of Life
02 - Catching Ideas
03 - Creativity and the Writing Process
04 - Educating Yourself
05 - Casting for Character
06 - Working With Actors
07 - On Set - Cewating a Happy Family
08 - Production Design - Building Unique Worlds
09 - Cinematography - Manifesting David's Vision
10 - Sound Design and Scoring
11 - Breaking the Rules
12 - Make It True to the Ideas
13 - Transcendental Meditation

General
Unique ID : 268964268023200189862143373061924719105 (0xCA58A23F1E43726FB583DFCEE93A0A01)
Complete name : Masterclass.David.Lynch.01of13.1080p.mkv
Format : Matroska
Format version : Version 4 / Version 2
File size : 132 MiB
Duration : 3 min 34 s
Overall bit rate : 5 175 kb/s

Video
ID : 1
Format : AVC
Format/Info : Advanced Video Codec
Format profile : High@L4
Format settings, CABAC : Yes
Format settings, ReFrames : 4 frames
Codec ID : V_MPEG4/ISO/AVC
Duration : 3 min 34 s
Bit rate : 4 982 kb/s
Width : 1 920 pixels
Height : 1 080 pixels
Display aspect ratio : 16:9
Frame rate mode : Constant
Frame rate : 24.000 FPS
Color space : YUV
Chroma subsampling : 4:2:0
Bit depth : 8 bits
Scan type : Progressive
Bits/(Pixel*Frame) : 0.100
Stream size : 127 MiB (96%)
Writing library : Zencoder Video Encoding System
Default : Yes
Forced : No
Color range : Limited
Color primaries : BT.709
Transfer characteristics : BT.709
Matrix coefficients : BT.709

Audio
ID : 2
Format : AAC
Format/Info : Advanced Audio Codec
Format profile : LC
Codec ID : A_AAC
Duration : 3 min 34 s
Bit rate : 192 kb/s
Channel(s) : 2 channels
Channel positions : Front: L R
Sampling rate : 48.0 kHz
Frame rate : 46.875 FPS (1024 spf)
Compression mode : Lossy
Stream size : 4.87 MiB (4%)
Default : Yes
Forced : No


Screenshots:

Masterclass - David Lynch Teaches Creativity and Film (2019)

Masterclass - David Lynch Teaches 			  		  		  	 			   			     		  		  	 			   		  		  		  	   	 			   		   	  		 			  		   				 Creativity and Film (2019)

Masterclass - David Lynch Teaches Creativity and Film (2019)

Masterclass - David Lynch Teaches Creativity and Film (2019)