Tags
Language
Tags

Max Keeble's Big Move (2001)

Posted By: Tavaz
720p (HD) / WEB-DL IMDb
Max Keeble's Big Move (2001)

Max Keeble's Big Move (2001)
WEB-DL | MKV | 1280x688 | English | H264 @ 3986 kbps | AC-3 @ 384 kbps | 1 h 26 min | 2.69 GiB
Subtitles: English
Genre: Comedy, Family

Max Keeble, the victim of his 7th grade class, plots revenge when he learns he's moving; it backfires when he doesn't move after all.

Max.Keebles.Big.Move.2001.720p.WEB-DL.DD5.1.H.264-CtrlHD.mkv (2.7 GB)



General
Unique ID : 251590486899690121935031586733871056098 (0xBD4690B3D9D828DFA3D5C37655DBC4E2)
Complete name : ./Max.Keebles.Big.Move.2001.720p.WEB-DL.DD5.1.H.264-CtrlHD.mkv
Format : Matroska
Format version : Version 4 / Version 2
File size : 2.69 GiB
Duration : 1 h 26 min
Overall bit rate : 4 459 kb/s
Encoded date : UTC 2017-09-18 07:58:12
Writing application : mkvmerge v9.3.1 ('Mask Machine') 64bit
Writing library : libebml v1.3.4 + libmatroska v1.4.5

Video
ID : 1
Format : AVC
Format/Info : Advanced Video Codec
Format profile : High@L3.1
Format settings : 2 Ref Frames
Format settings, CABAC : No
Format settings, RefFrames : 2 frames
Format settings, GOP : N=1
Codec ID : V_MPEG4/ISO/AVC
Duration : 1 h 26 min
Bit rate : 3 986 kb/s
Width : 1 280 pixels
Height : 688 pixels
Display aspect ratio : 1.85:1
Frame rate mode : Constant
Frame rate : 23.976 (24000/1001) FPS
Color space : YUV
Chroma subsampling : 4:2:0
Bit depth : 8 bits
Scan type : Progressive
Bits/(Pixel*Frame) : 0.189
Stream size : 2.41 GiB (89%)
Language : English
Default : Yes
Forced : No
Color range : Limited
Color primaries : BT.709
Transfer characteristics : BT.709
Matrix coefficients : BT.709

Audio
ID : 2
Format : AC-3
Format/Info : Audio Coding 3
Format settings, Endianness : Big
Codec ID : A_AC3
Duration : 1 h 26 min
Bit rate mode : Constant
Bit rate : 384 kb/s
Channel(s) : 6 channels
Channel positions : Front: L C R, Side: L R, LFE
Sampling rate : 48.0 kHz
Frame rate : 31.250 FPS (1536 SPF)
Bit depth : 16 bits
Compression mode : Lossy
Stream size : 237 MiB (9%)
Language : English
Service kind : Complete Main
Default : Yes
Forced : No

Text
ID : 3
Format : UTF-8
Codec ID : S_TEXT/UTF8
Codec ID/Info : UTF-8 Plain Text
Language : English
Default : No
Forced : No

Menu
00:00:00.000 : en:Opening Titles / Evil Ice Cream Man
00:03:50.000 : en:The First Day Of Junior High
00:07:23.000 : en:Principal Jindraike
00:10:20.000 : en:Pheromones
00:12:30.000 : en:First Victim Of The Year
00:17:31.000 : en:Investment Wisdom
00:21:13.000 : en:The Animal Shelter
00:28:02.000 : en:Bullies
00:32:23.000 : en:Plausibile Deniability
00:37:56.000 : en:Jindraike's Plan
00:41:41.000 : en:MacGoogle
00:43:31.000 : en:Superintendent Knebworth's Visit
00:47:28.000 : en:Cafeteria Hysteria
00:54:28.000 : en:Junkyard Justice
00:57:22.000 : en:"Phattitude"
01:00:50.000 : en:It's All Keeble's Fault
01:05:49.000 : en:Courage
01:10:37.000 : en:Parking Lot, 3 O'Clock
01:13:30.000 : en:Taking Back The School
01:17:37.000 : en:Animal Attraction
01:20:10.000 : en:Paperboy / End Credits





Max Keeble's Big Move (2001)


Max Keeble's Big Move (2001)


Max Keeble's Big Move (2001)


Max Keeble's Big Move (2001)


Max Keeble's Big Move (2001)