Tags
Language
Tags

NG. - Mayday: Explosive Touchdown (2020)

Posted By: notbanned
720p (HD) / HDTV
NG. - Mayday: Explosive Touchdown (2020)

NG. - Mayday: Explosive Touchdown (2020)
HDTV | 1280x720 | .MP4/AVC @ 3002 Kbps | 43 min 57 s | 987 MiB
Audio: English AAC 128 kbps, 2 channels | Subs: None
Genre: Documentary

After a routine landing at Hualien Airport, Uni Air flight 873 is rocked by a massive explosion. The resulting inferno destroys the fuselage. A team of international investigators finds no evidence of a bomb on board. But as they dig through the scorched wreckage, they ultimately uncover the powerful ingredients for catastrophe in the overhead bins.

General
Complete name : Mayday.Explosive.Touchdown.720p.mp4
Format : MPEG-4
Format profile : Base Media / Version 2
Codec ID : mp42 (mp42)
File size : 987 MiB
Duration : 43 min 57 s
Overall bit rate : 3 140 kb/s

Video
ID : 1
Format : AVC
Format/Info : Advanced Video Codec
Format profile : Main@L4.1
Format settings, CABAC : Yes
Format settings, ReFrames : 2 frames
Format settings, GOP : M=3, N=25
Codec ID : avc1
Codec ID/Info : Advanced Video Coding
Duration : 43 min 57 s
Bit rate : 3 002 kb/s
Width : 1 280 pixels
Height : 720 pixels
Display aspect ratio : 16:9
Frame rate mode : Constant
Frame rate : 50.000 FPS
Color space : YUV
Chroma subsampling : 4:2:0
Bit depth : 8 bits
Scan type : Progressive
Bits/(Pixel*Frame) : 0.065
Stream size : 944 MiB (96%)
Language : English

Audio
ID : 2
Format : AAC
Format/Info : Advanced Audio Codec
Format profile : LC
Codec ID : 40
Duration : 43 min 57 s
Bit rate mode : Constant
Bit rate : 128 kb/s
Channel(s) : 2 channels
Channel positions : Front: L R
Sampling rate : 44.1 kHz
Frame rate : 43.066 FPS (1024 spf)
Compression mode : Lossy
Stream size : 40.2 MiB (4%)
Title : Stereo
Language : English
Default : Yes
Alternate group : 1


Screenshots:

NG. - Mayday: Explosive Touchdown (2020)

NG. - Mayday: Explosive Touchdown (2020)

NG. - Mayday: Explosive Touchdown (2020)

NG. - Mayday: Explosive Touchdown (2020)