Tags
Language
Tags

Medical Frontiers - COVID-19: Healthcare's New Normal (2021)

Posted By: notbanned
1080p (FullHD) / HDTV
Medical Frontiers - COVID-19: Healthcare's New Normal (2021)

Medical Frontiers - COVID-19: Healthcare's New Normal (2021)
HDTV | 1920x1080 | .MKV/AVC @ 8056 Kbps | 28 min 0 s | 1.65 GiB
Audio: English MP2 192 kbps, 2 channels | Subs: None
Genre: Documentary

We focus on a hospital that accepted people from a cruise ship with a COVID-19 outbreak, which has since treated many seriously ill coronavirus patients. At first, little was known about the disease and how to treat it. The number of patients grew along with concerns that staff would become infected and unable to treat patients. The hospital introduced remote monitoring of patients and altered its layout to protect staff. We look at changes hospitals can make to keep functioning amid COVID-19.

General
Complete name : Medical.Frontiers.COVID-19.Healthcares.New.Normal.1080p.mkv
Format : Matroska
Format version : Version 4 / Version 2
File size : 1.65 GiB
Duration : 28 min 0 s
Overall bit rate : 8 415 kb/s

Video
ID : 1
Format : AVC
Format/Info : Advanced Video Codec
Format profile : High@L4
Format settings, CABAC : Yes
Format settings, ReFrames : 4 frames
Codec ID : V_MPEG4/ISO/AVC
Duration : 28 min 0 s
Bit rate : 8 056 kb/s
Width : 1 920 pixels
Height : 1 080 pixels
Display aspect ratio : 16:9
Frame rate mode : Constant
Frame rate : 25.000 FPS
Standard : Component
Color space : YUV
Chroma subsampling : 4:2:0
Bit depth : 8 bits
Scan type : Interlaced
Scan type, store method : Separated fields
Scan order : Top Field First
Bits/(Pixel*Frame) : 0.155
Stream size : 1.58 GiB (96%)
Language : English
Default : Yes
Forced : No
Color range : Limited
Color primaries : BT.709
Transfer characteristics : BT.709
Matrix coefficients : BT.709

Audio
ID : 2
Format : MPEG Audio
Format version : Version 1
Format profile : Layer 2
Codec ID : A_MPEG/L2
Codec ID/Hint : MP2
Duration : 28 min 0 s
Bit rate mode : Constant
Bit rate : 192 kb/s
Channel(s) : 2 channels
Sampling rate : 48.0 kHz
Compression mode : Lossy
Stream size : 38.5 MiB (2%)
Language : English
Default : Yes
Forced : No


Screenshots:

Medical Frontiers - COVID-19: Healthcare's New Normal (2021)

Medical Frontiers - COVID-19: Healthcare's New Normal (2021)

Medical Frontiers - COVID-19: Healthcare's New Normal (2021)

Medical Frontiers - COVID-19: Healthcare's New Normal (2021)