Tags
Language
Tags

Medical Frontiers - Cancer Immunotherapy: Targeting Tumors with Light and Antibodies (2021)

Posted By: notbanned
1080p (FullHD) / HDTV
Medical Frontiers - Cancer Immunotherapy: Targeting Tumors with Light and Antibodies (2021)

Medical Frontiers - Cancer Immunotherapy: Targeting Tumors with Light and Antibodies (2021)
HDTV | 1920x1080 | .MKV/AVC @ 8335 Kbps | 27 min 59 s | 1.70 GiB
Audio: English MP2 192 kbps, 2 channels | Subs: None
Genre: Documentary

A cancer treatment called photoimmunotherapy involves injecting patients with an agent, then exposing their tumors to near infrared light. It was developed by a Japanese researcher who works at the US National Institutes of Health. Japan became the first country to use it on a patient in 2021. The agent that's injected contains cancer-specific antibodies, to which special chemicals are attached. After the antibodies bind to cancer, near infrared light is applied, killing the cancer cells.

General
Complete name : Medical.Frontiers.Cancer.Immunotherapy.1080p.mkv
Format : Matroska
Format version : Version 4 / Version 2
File size : 1.70 GiB
Duration : 27 min 59 s
Overall bit rate : 8 700 kb/s

Video
ID : 1
Format : AVC
Format/Info : Advanced Video Codec
Format profile : High@L4
Format settings, CABAC : Yes
Format settings, ReFrames : 4 frames
Codec ID : V_MPEG4/ISO/AVC
Duration : 27 min 59 s
Bit rate : 8 335 kb/s
Width : 1 920 pixels
Height : 1 080 pixels
Display aspect ratio : 16:9
Frame rate mode : Constant
Frame rate : 25.000 FPS
Standard : Component
Color space : YUV
Chroma subsampling : 4:2:0
Bit depth : 8 bits
Scan type : Interlaced
Scan type, store method : Separated fields
Scan order : Top Field First
Bits/(Pixel*Frame) : 0.161
Stream size : 1.63 GiB (96%)
Language : English
Default : Yes
Forced : No
Color range : Limited
Color primaries : BT.709
Transfer characteristics : BT.709
Matrix coefficients : BT.709

Audio
ID : 2
Format : MPEG Audio
Format version : Version 1
Format profile : Layer 2
Codec ID : A_MPEG/L2
Codec ID/Hint : MP2
Duration : 27 min 59 s
Bit rate mode : Constant
Bit rate : 192 kb/s
Channel(s) : 2 channels
Sampling rate : 48.0 kHz
Compression mode : Lossy
Stream size : 38.4 MiB (2%)
Language : English
Default : Yes
Forced : No


Screenshots:

Medical Frontiers - Cancer Immunotherapy: Targeting Tumors with Light and Antibodies (2021)

Medical Frontiers - Cancer Immunotherapy: Targeting Tumors with Light and Antibodies (2021)

Medical Frontiers - Cancer Immunotherapy: Targeting Tumors with Light and Antibodies (2021)