Tags
Language
Tags

NG Megafactories - The Motorcycle Collection (2012)

Posted By: Tutorial
720p (HD) / HDTV
NG Megafactories - The Motorcycle Collection (2012)

NG Megafactories - The Motorcycle Collection (2012)
HDTV | 1280 x 720 | .MKV/AVC @ 3050 Kbps | 3x~45mn | 3.04 GB
Audio: English AC-3 448 Kbps, 6 channels | Subs: English
Genre: Documentary

Go behind the scenes as Megafactories explores manufacturing goliaths and brings to life some of the greatest one-of-a-kind factories in the world. MEGAFACTORIES The Motorcycle Collection takes us into three of the worlds of highly powered and highly sought-after bike factories to witness the pinnacle of motorcycle engineering!
Step inside the world's most impressive industrial sites as this fascinating series explores the manufacturing stories behind iconic vehicles and products. They may look sleek and shiny when they come off the conveyor belt, but every iconic product begins life as a mere collection of parts. Join us in the series of Megafactories as we don protective gear and enter the epic manufacturing plants behind the planet's biggest brands, revealing their unique construction secrets.
The World famous Italian Ducati shows us how the designers and engineers create a radical 'new biking concept' - four bikes in one machine! V-Rod is the first Harley-Davidson motorcycle to go from 0 to 96 kilometers per hour in just 3.52 seconds, nearly twice as fast as any other Harley-Davidson bike, witness its birth! And the legendary motorcycle manufacturer MV Augusta, watch how a father and son team (along with one of the most advanced factories in the world) rebuild and restore to the sport bike to its former glory!
With exclusive access to all areas, go behind the scenes to see how these top designers and engineers built the most sophisticated and technologically advanced motorbikes in MEGAFATORIES The Motorcycle Collection.

Produced by The Gamma Project Ltd, Michael Hoff Productions, Inc. and Cry Havoc Productions for National Geographic Channels

Part 1: Ducati
A look inside the world-famous Italian Ducati motorbike factory. See how they built the brand’s most sophisticated and technologically advanced motorbike ever, a shapeshifting, four bikes in one: the Multistrada 1200.
Access all areas of the renowned Italian Ducati motorbike factory. Ducati are the Ferrari of the two-wheel world… famed for racing, and high-speed, high performance, road bikes.
But with a massive recession looming, Ducati needed to enter the wider motorcycle markets of Tourers, City Bikes, and Off-Roaders to guarantee their future. Which new market would this little Italian company, famed for innovation and risk taking, choose?
The answer stunned the motorcycling world. Ducati would attempt the impossible. Harnessing their race bred technology to build ONE TRANSFORMING machine that could shape shift between ALL these very different types of motorcycle. The "Four Bikes in One" Ducati 1200 Multistrada! But would it work? And would anybody buy it?


Part 2: Harley Davidson
Harley Davidson is a legendary machine that is a symbol of freedom, adventure and the open road. Go behind the scenes of the 10-acre flagship factory in Kansas City to witness the birth of the latest model, the V-Rod, as it's built from the ground up.
The Harley-Davidson V-Rod is the first Harley-Davidson motorcycle to go from 0 to 96 kilometres per hour in just 3.52 seconds, nearly twice as fast as any other Harley-Davidson bike. With its thrilling speed, liquid-cooled engine and exterior frame, the V-Rod represents a number of important firsts for Harley-Davidson.
At the Harley-Davidson factory in Kansas City, U.S., it is up to the engineers, designers and factory workers to ensure the V-Rods creative look can handle the high speeds for which it was designed while maintaining the signature Harley-Davidson style that consumers expect.
Through cutting-edge CGI, factory footage and assembly worker interviews, Mega Factories: Harley-Davidson reveals the makings of one of the most revolutionary Harley-Davidson bike to date.


Part 3: MV Agusta
The MV Agusta F3 675 is the new leader of the 600 Supersport category with engine and chassis technology that rivals even the most exclusive 1000 Superbikes. The National Geographic Channel unveils all of the secrets of this revolutionary motorcycle in "Megafactories", an episode dedicated to the prestigious manufacturer in Varese.
We reveal the intricate internal workings of the manufacturer that is known as the most prestigious in the history of the motorcycle, with detailed footage of the contributing factors that have defined the success of MV Agusta: advanced technology, unmistakable design, skilled workforce and extreme attention to detail and quality in every phase of the production process.
These factors helped contribute to the creation of an groundbreaking product whose excellence is recognized world-wide and is proudly "Made in Italy". The details of the design, development, testing and assembly processes together with input from the skilled workforce including engineers, test riders and the management team are covered. This is the story behind the F3 three cylinder, the revolutionary motorcycle that has redefined the concept of superspor

General
Unique ID : 179211870907025064933707789477824078697 (0x86D2F36B5C6F1CD295BF078299EAA369)
Complete name : NG.Megafactories.The.Motorcycle.Collection.1of3.Ducati.mkv
Format : Matroska
Format version : Version 2
File size : 1.12 GiB
Duration : 45 min 0 s
Overall bit rate : 3 569 kb/s
Encoded date : UTC 2011-11-24 12:39:21
Writing application : mkvmerge v5.0.1 ('Es ist Sommer') built on Oct 9 2011 11:55:43
Writing library : libebml v1.2.2 + libmatroska v1.3.0

Video
ID : 1
Format : AVC
Format/Info : Advanced Video Codec
Format profile : High@L4.1
Format settings : CABAC / 5 Ref Frames
Format settings, CABAC : Yes
Format settings, Reference frames : 5 frames
Codec ID : V_MPEG4/ISO/AVC
Duration : 45 min 0 s
Bit rate : 3 050 kb/s
Width : 1 280 pixels
Height : 720 pixels
Display aspect ratio : 16:9
Frame rate mode : Constant
Frame rate : 25.000 FPS
Color space : YUV
Chroma subsampling : 4:2:0
Bit depth : 8 bits
Scan type : Progressive
Bits/(Pixel*Frame) : 0.132
Stream size : 982 MiB (85%)
Writing library : x264 core 119 r2106 07efeb4
Encoding settings : cabac=1 / ref=5 / deblock=1:0:0 / analyse=0x3:0x113 / me=umh / subme=8 / psy=1 / psy_rd=1.00:0.00 / mixed_ref=1 / me_range=16 / chroma_me=1 / trellis=1 / 8x8dct=1 / cqm=0 / deadzone=21,11 / fast_pskip=1 / chroma_qp_offset=-2 / threads=12 / sliced_threads=0 / nr=0 / decimate=1 / interlaced=0 / bluray_compat=0 / constrained_intra=0 / bframes=3 / b_pyramid=2 / b_adapt=2 / b_bias=0 / direct=3 / weightb=1 / open_gop=0 / weightp=2 / keyint=250 / keyint_min=25 / scenecut=40 / intra_refresh=0 / rc_lookahead=50 / rc=crf / mbtree=1 / crf=20.0 / qcomp=0.60 / qpmin=0 / qpmax=69 / qpstep=4 / ip_ratio=1.40 / aq=1:1.00
Language : English
Default : Yes
Forced : No

Audio
ID : 2
Format : AC-3
Format/Info : Audio Coding 3
Commercial name : Dolby Digital
Codec ID : A_AC3
Duration : 45 min 0 s
Bit rate mode : Constant
Bit rate : 448 kb/s
Channel(s) : 6 channels
Channel layout : L R C LFE Ls Rs
Sampling rate : 48.0 kHz
Frame rate : 31.250 FPS (1536 SPF)
Compression mode : Lossy
Delay relative to video : 12 ms
Stream size : 144 MiB (13%)
Language : English
Service kind : Complete Main
Default : Yes
Forced : No
Screenshots

NG Megafactories - The Motorcycle Collection (2012)

NG Megafactories - The Motorcycle Collection (2012)

NG Megafactories - The Motorcycle Collection (2012)

Welcome to my blog - daily update!
NG Megafactories - The Motorcycle Collection (2012)