Tags
Language
Tags

NHK - Meiji Jingu Forest: A 100-Year Experiment (2015) [Repost]

Posted By: Tutorial
NHK - Meiji Jingu Forest: A 100-Year Experiment (2015) [Repost]

NHK - Meiji Jingu Forest: A 100-Year Experiment (2015)
HDTV | 1280 x 720 | .MKV/AVC @ 3505 Kbps | 48 min 59 s | 1.24 GB
Audio: English AAC 126 Kbps, 2 channels | Subs: None
Genre: Documentary, Nature

In the heart of Tokyo lies the sacred forest of Meiji Jingu, one of the most visited shrines in Japan. Only a select few know the secret of this restricted forest. The seemingly primeval forest is a man-made creation, a result of a century-old grandiose experiment. For the first time, the outcome of this experiment is revealed and recorded on camera. Strange and wondrous flora and fauna are found. But how has such a rich forest taken root in a metropolis? Join us as we unveil the mystery of Meiji Jingu's sacred forest.
also You can find my last: NHK World-posts

General
Unique ID : 211778368085817593750797647430954593710 (0x9F5307B278732A09A5D3F7B1B2A52DAE)
Complete name : NHK.Meiji.Jingu.Forest.A.100-Year.Experiment.mkv
Format : Matroska
Format version : Version 4 / Version 2
File size : 1.24 GiB
Duration : 48 min 59 s
Overall bit rate : 3 633 kb/s
Encoded date : UTC 2015-10-27 11:30:11
Writing application : mkvmerge v8.3.0 ('Over the Horizon') 64bit
Writing library : libebml v1.3.1 + libmatroska v1.4.2

Video
ID : 1
Format : AVC
Format/Info : Advanced Video Codec
Format profile : High@L4.1
Format settings, CABAC : Yes
Format settings, ReFrames : 6 frames
Codec ID : V_MPEG4/ISO/AVC
Duration : 48 min 59 s
Bit rate : 3 505 kb/s
Width : 1 280 pixels
Height : 720 pixels
Display aspect ratio : 16:9
Frame rate mode : Constant
Frame rate : 25.000 FPS
Color space : YUV
Chroma subsampling : 4:2:0
Bit depth : 8 bits
Scan type : Progressive
Bits/(Pixel*Frame) : 0.152
Stream size : 1.20 GiB (96%)
Writing library : x264 core 148 r2597 e86f3a1
Encoding settings : cabac=1 / ref=6 / deblock=1:0:0 / analyse=0x3:0x113 / me=umh / subme=9 / psy=1 / psy_rd=1.00:0.00 / mixed_ref=1 / me_range=24 / chroma_me=1 / trellis=1 / 8x8dct=1 / cqm=0 / deadzone=21,11 / fast_pskip=0 / chroma_qp_offset=-2 / threads=3 / lookahead_threads=1 / sliced_threads=0 / nr=0 / decimate=1 / interlaced=0 / bluray_compat=0 / constrained_intra=0 / bframes=5 / b_pyramid=2 / b_adapt=2 / b_bias=0 / direct=1 / weightb=1 / open_gop=0 / weightp=2 / keyint=250 / keyint_min=25 / scenecut=40 / intra_refresh=0 / rc_lookahead=40 / rc=crf / mbtree=1 / crf=20.0 / qcomp=0.60 / qpmin=0 / qpmax=69 / qpstep=4 / ip_ratio=1.40 / aq=1:1.00
Language : English
Default : Yes
Forced : No

Audio
ID : 2
Format : AAC
Format/Info : Advanced Audio Codec
Format profile : LC
Codec ID : A_AAC
Duration : 48 min 59 s
Bit rate : 126 kb/s
Channel(s) : 2 channels
Channel positions : Front: L R
Sampling rate : 48.0 kHz
Frame rate : 46.875 FPS (1024 spf)
Compression mode : Lossy
Delay relative to video : 9 ms
Stream size : 44.1 MiB (3%)
Language : English
Default : Yes
Forced : No
Screenshots

NHK - Meiji Jingu Forest: A 100-Year Experiment (2015) [Repost]

NHK - Meiji Jingu Forest: A 100-Year Experiment (2015) [Repost]

NHK - Meiji Jingu Forest: A 100-Year Experiment (2015) [Repost]

NHK - Meiji Jingu Forest: A 100-Year Experiment (2015) [Repost]

Welcome to my blog - daily update!

NHK - Meiji Jingu Forest: A 100-Year Experiment (2015) [Repost]