Tags
Language
Tags

BBC - Michelangelo: A Film (2006)

Posted By: Tutorial
SD / DVDRip
BBC - Michelangelo: A Film (2006)

BBC - Michelangelo: A Film (2006)
DVDRip | 720 x 400 | .AVI/XviD @ 2189 Kbps | 39mn 56s | English AC-3 256 Kbps, 2 channels | 700 MB
Genre: Documentary, Arts

A joint BBC/British Museum production about the drawings of Michelangelo and the way that they illuminate his life, his artistic development, his religion and his inner torments. The film is presented Neil MacGregor, Director of the British Museum, and is filmed on location in Florence and in the Sistine Chapel.
Michelangelo's drawings are some of the greatest of all time. Fragile survivals from over 500 years ago, they can be studied and admired as things of great technical skill and enormous beauty, but they show us something else as well: they show us Michelangelo thinking. Michelangelo would have felt exposed seeing us look at his drawings. And that's what makes them exciting: they give us a thrilling insight into how this genius sculptor, architect and painter worked: they bring us closer to the master. From pen studies made when he was in his early twenties to the visionary crucifixion scenes carried out six decades later, shortly before his death, this film illuminates the high points of Michelangelo's career.
The film observes a life class at the Prince's Drawing School and uses the male sitter they are drawing to see how precisely Michelangelo studied his great obsession: the human body. From the sketch of God giving life to Adam for the Sistine Ceiling, to drawings in preparation for the Last Judgement and the great last works on the crucifixion, the film traces the remarkable evolution of some of the world's most celebrated artworks.

General
Complete name : Michelangelo.A.Film.avi
Format : AVI
Format/Info : Audio Video Interleave
File size : 700 MiB
Duration : 39mn 56s
Overall bit rate : 2 451 Kbps
Writing application : VirtualDubMod 1.5.4.1 (build 2178/release)
Writing library : VirtualDubMod build 2178/release

Video
ID : 0
Format : MPEG-4 Visual
Format profile : Advanced Simple@L5
Format settings, BVOP : 1
Format settings, QPel : No
Format settings, GMC : No warppoints
Format settings, Matrix : Custom
Codec ID : XVID
Codec ID/Hint : XviD
Duration : 39mn 56s
Bit rate : 2 189 Kbps
Width : 720 pixels
Height : 400 pixels
Display aspect ratio : 16:9
Frame rate : 25.000 fps
Color space : YUV
Chroma subsampling : 4:2:0
Bit depth : 8 bits
Scan type : Progressive
Compression mode : Lossy
Bits/(Pixel*Frame) : 0.304
Stream size : 625 MiB (89%)
Writing library : XviD 1.2.0.dev47 (UTC 2006-11-01)

Audio
ID : 1
Format : AC-3
Format/Info : Audio Coding 3
Mode extension : CM (complete main)
Codec ID : 2000
Duration : 39mn 54s
Bit rate mode : Constant
Bit rate : 256 Kbps
Channel(s) : 2 channels
Channel positions : Front: L R
Sampling rate : 48.0 KHz
Bit depth : 16 bits
Compression mode : Lossy
Stream size : 73.1 MiB (10%)
Alignment : Split accross interleaves
Interleave, duration : 96 ms (2.40 video frames)
Interleave, preload duration : 96 ms
Language : English
Screenshots

BBC - Michelangelo: A Film (2006)

BBC - Michelangelo: A Film (2006)

BBC - Michelangelo: A Film (2006)

BBC - Michelangelo: A Film (2006)

BBC - Michelangelo: A Film (2006)

Welcome to my blog - daily update!

BBC - Michelangelo: A Film (2006)