Tags
Language
Tags
April 2024
Su Mo Tu We Th Fr Sa
31 1 2 3 4 5 6
7 8 9 10 11 12 13
14 15 16 17 18 19 20
21 22 23 24 25 26 27
28 29 30 1 2 3 4

Midnight Sun (2018)

Posted By: JohnSmith
1080p (FullHD) / WEB-DL IMDb
Midnight Sun (2018)

Midnight Sun (2018)
HDRip | AVI / XviD@1677 kb/s | 720x304 | 1h 31mn | 1.33 GB | English: AC3, 384 kb/s (6 ch)
WEB-DL 720p | MKV / AVC@3950 kb/s | 1280x530 | 1h 31mn | 2.84 GB | English: AC3, 384 kb/s (6 ch)
WEB-DL 1080p | MKV / AVC@4546 kb/s | 1916x794 | 1h 31mn | 3.17 GB | English: AC3, 384 kb/s (6 ch)
Genre: Drama | Romance

Based on the Japanese film, Midnight Sun centers on Katie, a 17-year-old sheltered since childhood and confined to her house during the day by a rare disease that makes even the smallest amount of sunlight deadly. Fate intervenes when she meets Charlie and they embark on a summer romance.




General
Complete name : E:\HDNL2GSR528\Midnight.Sun.2018.HDRip.XviD.AC3-EVO\Midnight.Sun.2018.HDRip.XviD.AC3-EVO.avi
Format : AVI
Format/Info : Audio Video Interleave
File size : 1.33 GiB
Duration : 1 h 31 min
Overall bit rate : 2 070 kb/s
Writing library : VirtualDub build 32593/release

Video
ID : 0
Format : MPEG-4 Visual
Format profile : Advanced Simple@L5
Format settings, BVOP : 2
Format settings, QPel : No
Format settings, GMC : No warppoints
Format settings, Matrix : Default (H.263)
Muxing mode : Packed bitstream
Codec ID : XVID
Codec ID/Hint : XviD
Duration : 1 h 31 min
Bit rate : 1 677 kb/s
Width : 720 pixels
Height : 304 pixels
Display aspect ratio : 2.35:1
Frame rate : 23.976 (24000/1001) FPS
Color space : YUV
Chroma subsampling : 4:2:0
Bit depth : 8 bits
Scan type : Progressive
Compression mode : Lossy
Bits/(Pixel*Frame) : 0.320
Stream size : 1.08 GiB (81%)
Writing library : XviD 66

Audio
ID : 1
Format : AC-3
Format/Info : Audio Coding 3
Mode extension : CM (complete main)
Format settings, Endianness : Big
Codec ID : 2000
Duration : 1 h 31 min
Bit rate mode : Constant
Bit rate : 384 kb/s
Channel(s) : 6 channels
Channel positions : Front: L C R, Side: L R, LFE
Sampling rate : 48.0 kHz
Frame rate : 31.250 FPS (1536 spf)
Bit depth : 16 bits
Compression mode : Lossy
Stream size : 252 MiB (19%)
Alignment : Aligned on interleaves
Interleave, duration : 42 ms (1.00 video frame)
Interleave, preload duratio : 512 ms





General
Unique ID : 227979027505499758820262038946057702441 (0xAB8329E0267AD5DAA6CD67D70E264C29)
Complete name : E:\HDNL2GSR528\Midnight.Sun.2018.720p.WEB-DL.H264.AC3-EVO\Midnight.Sun.2018.720p.WEB-DL.H264.AC3-EVO.mkv
Format : Matroska
Format version : Version 4 / Version 2
File size : 2.84 GiB
Duration : 1 h 31 min
Overall bit rate : 4 419 kb/s
Encoded date : UTC 2018-06-05 04:08:25
Writing application : mkvmerge v6.7.0 ('Back to the Ground') 64bit built on Jan 8 2014 15:10:52
Writing library : libebml v1.3.0 + libmatroska v1.4.1

Video
ID : 1
Format : AVC
Format/Info : Advanced Video Codec
Format profile : Main@L3.1
Format settings, CABAC : No
Format settings, ReFrames : 2 frames
Codec ID : V_MPEG4/ISO/AVC
Duration : 1 h 31 min
Bit rate : 3 947 kb/s
Width : 1 280 pixels
Height : 530 pixels
Display aspect ratio : 2.40:1
Frame rate mode : Constant
Frame rate : 23.976 FPS
Color space : YUV
Chroma subsampling : 4:2:0
Bit depth : 8 bits
Scan type : Progressive
Bits/(Pixel*Frame) : 0.243
Stream size : 2.53 GiB (89%)
Language : English
Default : Yes
Forced : No
Color range : Limited
Color primaries : BT.709
Transfer characteristics : BT.709
Matrix coefficients : BT.709

Audio
ID : 2
Format : AC-3
Format/Info : Audio Coding 3
Mode extension : CM (complete main)
Format settings, Endianness : Big
Codec ID : A_AC3
Duration : 1 h 31 min
Bit rate mode : Constant
Bit rate : 384 kb/s
Channel(s) : 6 channels
Channel positions : Front: L C R, Side: L R, LFE
Sampling rate : 48.0 kHz
Frame rate : 31.250 FPS (1536 spf)
Bit depth : 16 bits
Compression mode : Lossy
Stream size : 252 MiB (9%)
Language : English
Default : Yes
Forced : No

Menu
00:00:00.000 : en:1
00:04:01.991 : en:2
00:09:33.113 : en:3
00:14:24.988 : en:4
00:20:53.584 : en:5
00:24:17.204 : en:6
00:30:15.186 : en:7
00:34:14.758 : en:8
00:37:47.804 : en:9
00:42:49.355 : en:10
00:47:29.093 : en:11
00:53:24.448 : en:12
00:57:35.240 : en:13
01:01:32.810 : en:14
01:04:16.390 : en:15
01:07:28.206 : en:16
01:10:07.073 : en:17
01:15:37.862 : en:18
01:19:40.771 : en:19
01:26:22.172 : en:20





General
Unique ID : 195389132308926471972947862957236543081 (0x92FE93FC897E5EA3B6039E8113E5DE69)
Complete name : E:\HDNL2GSR528\Midnight.Sun.2018.1080p.WEB-DL.H264.AC3-EVO\Midnight.Sun.2018.1080p.WEB-DL.H264.AC3-EVO.mkv
Format : Matroska
Format version : Version 4 / Version 2
File size : 3.17 GiB
Duration : 1 h 31 min
Overall bit rate : 4 932 kb/s
Encoded date : UTC 2018-06-05 04:08:02
Writing application : mkvmerge v14.0.0 ('Flow') 64bit
Writing library : libebml v1.3.4 + libmatroska v1.4.5

Video
ID : 2
Format : AVC
Format/Info : Advanced Video Codec
Format profile : High@L4
Format settings, CABAC : Yes
Format settings, ReFrames : 5 frames
Codec ID : V_MPEG4/ISO/AVC
Duration : 1 h 31 min
Bit rate : 4 546 kb/s
Width : 1 916 pixels
Height : 794 pixels
Display aspect ratio : 2.40:1
Frame rate mode : Constant
Frame rate : 23.976 FPS
Color space : YUV
Chroma subsampling : 4:2:0
Bit depth : 8 bits
Scan type : Progressive
Bits/(Pixel*Frame) : 0.125
Stream size : 2.92 GiB (92%)
Language : English
Default : Yes
Forced : No
Color range : Limited
Color primaries : BT.709
Transfer characteristics : BT.709
Matrix coefficients : BT.709

Audio
ID : 1
Format : AC-3
Format/Info : Audio Coding 3
Mode extension : CM (complete main)
Format settings, Endianness : Big
Codec ID : A_AC3
Duration : 1 h 31 min
Bit rate mode : Constant
Bit rate : 384 kb/s
Channel(s) : 6 channels
Channel positions : Front: L C R, Side: L R, LFE
Sampling rate : 48.0 kHz
Frame rate : 31.250 FPS (1536 spf)
Bit depth : 16 bits
Compression mode : Lossy
Delay relative to video : -42 ms
Stream size : 252 MiB (8%)
Language : English
Default : Yes
Forced : No

Menu
00:00:00.000 : en:1
00:04:01.991 : en:2
00:09:33.113 : en:3
00:14:24.988 : en:4
00:20:53.584 : en:5
00:24:17.204 : en:6
00:30:15.186 : en:7
00:34:14.758 : en:8
00:37:47.803 : en:9
00:42:49.353 : en:10
00:47:29.090 : en:11
00:53:24.445 : en:12
00:57:35.236 : en:13
01:01:32.806 : en:14
01:04:16.385 : en:15
01:07:28.200 : en:16
01:10:07.066 : en:17
01:15:37.854 : en:18
01:19:40.762 : en:19
01:26:22.162 : en:20




Screenshots HDRip

Midnight Sun (2018)

Midnight Sun (2018)

Midnight Sun (2018)


Screenshots WEB-DL 720p

Midnight Sun (2018)

Midnight Sun (2018)

Midnight Sun (2018)


Screenshots WEB-DL 1080p

Midnight Sun (2018)

Midnight Sun (2018)

Midnight Sun (2018)