Mithai (2019)

Posted By: Tavaz
1080p (FullHD) / WEBRip IMDb
Mithai (2019)

Mithai (2019)
WEBRip | MKV | 1920x828 | Telugu | H264 @ 6236 kbps | E-AC-3 @ 224 kbps | 2 h 17 min | 6.22 GiB
Subtitles: English
Genre: Comedy, Crime, Romance

After getting fired from his boring job Sai who is to get married in three days time, goes drinking with his friend Jani, his house gets robbed. Sai loses everything including the diamond necklace later in the evening he gets into a stupid challenge with his NRI friend Krishna. Sai and Jani take up the challenge that Sai wont get married until they find the thief. Their mad caper begins when they meet up dude, a pot-smoking slacker loafing aimlessly with his pet goat. They are running against time and desperate, with just three days for Sai to get married. In this journey of self-exploration, they are neck deep in trouble. Will they find what they are looking for? Only time will tell.

ee3ae33ea7834f91af06d9fb6b70dc20.mkv (6.2 GB)



General
Unique ID : 333384579019089441322202889814097026297 (0xFACF88CCAAE7A98E5D1E49CC00345CF9)
Complete name : ./ee3ae33ea7834f91af06d9fb6b70dc20.mkv
Format : Matroska
Format version : Version 4 / Version 2
File size : 6.22 GiB
Duration : 2 h 17 min
Overall bit rate : 6 463 kb/s
Encoded date : UTC 2019-05-24 00:16:51
Writing application : mkvmerge v33.1.0 ('Primrose') 64-bit
Writing library : libebml v1.3.7 + libmatroska v1.5.0

Video
ID : 1
Format : AVC
Format/Info : Advanced Video Codec
Format profile : High@L4.1
Format settings : CABAC / 5 Ref Frames
Format settings, CABAC : Yes
Format settings, RefFrames : 5 frames
Codec ID : V_MPEG4/ISO/AVC
Duration : 2 h 17 min
Bit rate : 6 237 kb/s
Width : 1 920 pixels
Height : 828 pixels
Display aspect ratio : 2.35:1
Frame rate mode : Constant
Frame rate : 24.000 FPS
Color space : YUV
Chroma subsampling : 4:2:0
Bit depth : 8 bits
Scan type : Progressive
Bits/(Pixel*Frame) : 0.163
Stream size : 6.00 GiB (97%)
Writing library : x264 core 157 r2969 d4099dd
Encoding settings : cabac=1 / ref=5 / deblock=1:-3:-3 / analyse=0x3:0x113 / me=hex / subme=8 / psy=1 / psy_rd=1.00:0.00 / mixed_ref=1 / me_range=16 / chroma_me=1 / trellis=2 / 8x8dct=1 / cqm=0 / deadzone=21,11 / fast_pskip=1 / chroma_qp_offset=-2 / threads=12 / lookahead_threads=2 / sliced_threads=0 / nr=0 / decimate=1 / interlaced=0 / bluray_compat=0 / constrained_intra=0 / bframes=3 / b_pyramid=2 / b_adapt=1 / b_bias=0 / direct=3 / weightb=1 / open_gop=0 / weightp=2 / keyint=250 / keyint_min=24 / scenecut=40 / intra_refresh=0 / rc_lookahead=50 / rc=crf / mbtree=1 / crf=17.0 / qcomp=0.60 / qpmin=0 / qpmax=69 / qpstep=4 / ip_ratio=1.40 / aq=1:1.00
Language : English
Default : Yes
Forced : No

Audio
ID : 2
Format : E-AC-3
Format/Info : Enhanced Audio Coding 3
Format settings, Endianness : Big
Codec ID : A_EAC3
Duration : 2 h 17 min
Bit rate mode : Constant
Bit rate : 224 kb/s
Channel(s) : 2 channels
Channel positions : Front: L R
Sampling rate : 48.0 kHz
Frame rate : 187.500 FPS (256 SPF)
Compression mode : Lossy
Stream size : 221 MiB (3%)
Title : Telugu
Language : Telugu
Service kind : Complete Main
Default : Yes
Forced : No

Text
ID : 3
Format : UTF-8
Codec ID : S_TEXT/UTF8
Codec ID/Info : UTF-8 Plain Text
Duration : 2 h 14 min
Bit rate : 57 b/s
Count of elements : 1798
Stream size : 57.1 KiB (0%)
Title : English (SDH)
Language : English
Default : Yes
Forced : No





Mithai (2019)


Mithai (2019)


Mithai (2019)


Mithai (2019)


Mithai (2019)