Mom S05E02

Posted By: Tavaz
1080p (FullHD) / WEB-DL IMDb
Mom S05E02

Mom S05E02
WEB-DL | MKV | 1920x1080 | English | H264 @ 10809 kbps | E-AC-3 @ 640 kbps | 18 min 36 s | 1.49 GiB
Subtitles: English
Genre: Comedy

Aan irreverent and outrageous take on true family love‐and dysfunction. Newly sober single mom Christy struggles to raise two children in a world full of temptations and pitfalls. Testing her sobriety is her formerly estranged mother, now back in Christy's life and eager to share passive-aggressive insights into her daughter's many mistakes.

4ba513f5708d419fa39a074398bd3d2e.mkv (1.5 GB)



General
Complete name : ./4ba513f5708d419fa39a074398bd3d2e.mkv
Format : Matroska
Format version : Version 4 / Version 2
File size : 1.49 GiB
Duration : 18 min 36 s
Overall bit rate mode : Variable
Overall bit rate : 11.5 Mb/s
Encoded date : UTC 2017-11-10 20:23:03
Writing application : mkvmerge v10.0.0 ('To Drown In You') 64bit
Writing library : libebml v1.3.4 + libmatroska v1.4.5

Video
ID : 1
Format : AVC
Format/Info : Advanced Video Codec
Format profile : High@L4
Format settings : CABAC / 4 Ref Frames
Format settings, CABAC : Yes
Format settings, RefFrames : 4 frames
Codec ID : V_MPEG4/ISO/AVC
Duration : 18 min 36 s
Bit rate mode : Variable
Bit rate : 10.8 Mb/s
Maximum bit rate : 15.0 Mb/s
Width : 1 920 pixels
Height : 1 080 pixels
Display aspect ratio : 16:9
Frame rate mode : Constant
Frame rate : 23.976 (24000/1001) FPS
Color space : YUV
Chroma subsampling : 4:2:0
Bit depth : 8 bits
Scan type : Progressive
Bits/(Pixel*Frame) : 0.217
Stream size : 1.41 GiB (94%)
Default : Yes
Forced : No
Color range : Limited
Color primaries : BT.709
Transfer characteristics : BT.709
Matrix coefficients : BT.709

Audio
ID : 2
Format : E-AC-3
Format/Info : Enhanced Audio Coding 3
Format settings, Endianness : Big
Codec ID : A_EAC3
Duration : 18 min 36 s
Bit rate mode : Constant
Bit rate : 640 kb/s
Channel(s) : 6 channels
Channel positions : Front: L C R, Side: L R, LFE
Sampling rate : 48.0 kHz
Frame rate : 187.500 FPS (256 SPF)
Compression mode : Lossy
Stream size : 85.2 MiB (6%)
Language : English
Service kind : Complete Main
Default : Yes
Forced : No

Text
ID : 3
Format : UTF-8
Codec ID : S_TEXT/UTF8
Codec ID/Info : UTF-8 Plain Text
Duration : 18 min 0 s
Bit rate : 96 b/s
Count of elements : 455
Stream size : 12.7 KiB (0%)
Language : English
Default : No
Forced : No





Mom S05E02


Mom S05E02


Mom S05E02


Mom S05E02


Mom S05E02

All episodes