Mom S05E05

Posted By: Tavaz
1080p (FullHD) / WEB-DL IMDb
Mom S05E05

Mom S05E05
WEB-DL | MKV | 1920x1080 | English | H264 @ 11321 kbps | E-AC-3 @ 640 kbps | 19 min 41 s | 1.65 GiB
Subtitles: English
Genre: Comedy, Drama, Romance

A newly sober single mom tries to pull her life together in Napa Valley while dealing with her wayward mother.

c4ee91907eea4fe49d187aa0b9e47685.mkv (1.6 GB)



General
Complete name : ./c4ee91907eea4fe49d187aa0b9e47685.mkv
Format : Matroska
Format version : Version 4 / Version 2
File size : 1.65 GiB
Duration : 19 min 41 s
Overall bit rate mode : Variable
Overall bit rate : 12.0 Mb/s
Encoded date : UTC 2017-12-02 11:20:20
Writing application : mkvmerge v10.0.0 ('To Drown In You') 64bit
Writing library : libebml v1.3.4 + libmatroska v1.4.5

Video
ID : 1
Format : AVC
Format/Info : Advanced Video Codec
Format profile : High@L4
Format settings : CABAC / 4 Ref Frames
Format settings, CABAC : Yes
Format settings, RefFrames : 4 frames
Codec ID : V_MPEG4/ISO/AVC
Duration : 19 min 41 s
Bit rate mode : Variable
Bit rate : 11.3 Mb/s
Maximum bit rate : 15.0 Mb/s
Width : 1 920 pixels
Height : 1 080 pixels
Display aspect ratio : 16:9
Frame rate mode : Constant
Frame rate : 23.976 (24000/1001) FPS
Color space : YUV
Chroma subsampling : 4:2:0
Bit depth : 8 bits
Scan type : Progressive
Bits/(Pixel*Frame) : 0.228
Stream size : 1.56 GiB (95%)
Default : Yes
Forced : No
Color range : Limited
Color primaries : BT.709
Transfer characteristics : BT.709
Matrix coefficients : BT.709

Audio
ID : 2
Format : E-AC-3
Format/Info : Enhanced Audio Coding 3
Format settings, Endianness : Big
Codec ID : A_EAC3
Duration : 19 min 41 s
Bit rate mode : Constant
Bit rate : 640 kb/s
Channel(s) : 6 channels
Channel positions : Front: L C R, Side: L R, LFE
Sampling rate : 48.0 kHz
Frame rate : 187.500 FPS (256 SPF)
Compression mode : Lossy
Stream size : 90.1 MiB (5%)
Language : English
Service kind : Complete Main
Default : Yes
Forced : No

Text
ID : 3
Format : UTF-8
Codec ID : S_TEXT/UTF8
Codec ID/Info : UTF-8 Plain Text
Duration : 19 min 8 s
Bit rate : 92 b/s
Count of elements : 438
Stream size : 13.0 KiB (0%)
Language : English
Default : No
Forced : No





Mom S05E05


Mom S05E05


Mom S05E05


Mom S05E05


Mom S05E05

All episodes