Tags
Language
Tags
February 2023
Su Mo Tu We Th Fr Sa
29 30 31 1 2 3 4
5 6 7 8 9 10 11
12 13 14 15 16 17 18
19 20 21 22 23 24 25
26 27 28 1 2 3 4

Monsieur Ibrahim et les fleurs du Coran (2003)

Posted By: Tavaz
720p (HD) / BDRip IMDb
Monsieur Ibrahim et les fleurs du Coran (2003)

Monsieur Ibrahim et les fleurs du Coran (2003)
BDRip | MKV | 1200x720 | French | H264 @ 5090 kbps | DTS @ 1509 kbps | 1 h 34 min | 4.37 GiB
Genre: Drama

À Paris, dans les années 60, Momo, un garçon de 13 ans, se retrouve livré à lui-même. Il a un seul ami, Monsieur Ibrahim, l'épicier arabe et philosophe de la rue Bleue. Celui-ci va lui faire découvrir la vie, les femmes, l'amour et quelques grands principes.

Monsieur.Ibrahim.Et.Les.Fleurs.Du.Coran.2003.FRENCH.720p.BluRay.x264-DuSS.mkv (4.4 GB)



General
Unique ID : 171777056090105183665113238238207371464 (0x813B0EBF6A40FFB7888BDDDC737B68C8)
Complete name : ./Monsieur.Ibrahim.Et.Les.Fleurs.Du.Coran.2003.FRENCH.720p.BluRay.x264-DuSS.mkv
Format : Matroska
Format version : Version 4 / Version 2
File size : 4.37 GiB
Duration : 1 h 34 min
Overall bit rate : 6 597 kb/s
Encoded date : UTC 2017-11-19 23:08:17
Writing application : mkvmerge v6.8.0 ('Theme for Great Cities') 64bit built on Mar 2 2014 21:34:26
Writing library : libebml v1.3.0 + libmatroska v1.4.1

Video
ID : 1
Format : AVC
Format/Info : Advanced Video Codec
Format profile : High@L4.1
Format settings : CABAC / 9 Ref Frames
Format settings, CABAC : Yes
Format settings, RefFrames : 9 frames
Codec ID : V_MPEG4/ISO/AVC
Duration : 1 h 34 min
Bit rate : 5 090 kb/s
Width : 1 200 pixels
Height : 720 pixels
Display aspect ratio : 5:3
Frame rate mode : Constant
Frame rate : 24.000 FPS
Color space : YUV
Chroma subsampling : 4:2:0
Bit depth : 8 bits
Scan type : Progressive
Bits/(Pixel*Frame) : 0.245
Stream size : 3.28 GiB (75%)
Writing library : x264 core 152 r2851 ba24899
Encoding settings : cabac=1 / ref=9 / deblock=1:-3:-3 / analyse=0x3:0x113 / me=umh / subme=8 / psy=1 / psy_rd=1.00:0.00 / mixed_ref=1 / me_range=16 / chroma_me=1 / trellis=2 / 8x8dct=1 / cqm=0 / deadzone=21,11 / fast_pskip=0 / chroma_qp_offset=-2 / threads=12 / lookahead_threads=2 / sliced_threads=0 / nr=0 / decimate=1 / interlaced=0 / bluray_compat=0 / constrained_intra=0 / bframes=3 / b_pyramid=2 / b_adapt=1 / b_bias=0 / direct=1 / weightb=1 / open_gop=0 / weightp=2 / keyint=250 / keyint_min=24 / scenecut=40 / intra_refresh=0 / rc_lookahead=40 / rc=2pass / mbtree=1 / bitrate=5090 / ratetol=1.0 / qcomp=0.60 / qpmin=0 / qpmax=69 / qpstep=4 / cplxblur=20.0 / qblur=0.5 / ip_ratio=1.40 / aq=1:1.00
Language : English
Default : Yes
Forced : No

Audio
ID : 2
Format : DTS
Format/Info : Digital Theater Systems
Mode : 16
Format settings, Endianness : Big
Codec ID : A_DTS
Duration : 1 h 34 min
Bit rate mode : Constant
Bit rate : 1 509 kb/s
Channel(s) : 6 channels
Channel positions : Front: L C R, Side: L R, LFE
Sampling rate : 48.0 kHz
Frame rate : 93.750 FPS (512 SPF)
Bit depth : 24 bits
Compression mode : Lossy
Stream size : 1 023 MiB (23%)
Language : French
Default : Yes
Forced : No

Menu
00:00:00.000 : en:00:00:00.000
00:09:32.375 : en:00:09:32.375
00:17:49.292 : en:00:17:49.292
00:24:39.917 : en:00:24:39.917
00:31:12.542 : en:00:31:12.542
00:41:43.083 : en:00:41:43.083
00:48:55.000 : en:00:48:55.000
00:56:03.750 : en:00:56:03.750
01:04:56.208 : en:01:04:56.208
01:12:17.750 : en:01:12:17.750
01:19:24.917 : en:01:19:24.917
01:29:05.583 : en:01:29:05.583





Monsieur Ibrahim et les fleurs du Coran (2003)


Monsieur Ibrahim et les fleurs du Coran (2003)


Monsieur Ibrahim et les fleurs du Coran (2003)


Monsieur Ibrahim et les fleurs du Coran (2003)


Monsieur Ibrahim et les fleurs du Coran (2003)