Tags
Language
Tags

Sky - Monteverdi Vespers Of The Blessed Virgin (2014)

Posted By: notbanned
1080p (FullHD) / HDTV
Sky - Monteverdi Vespers Of The Blessed Virgin (2014)

Sky - Monteverdi Vespers Of The Blessed Virgin (2014)
HDTV | 1920x1080 | .MKV/AVC @ 3968 Kbps | 1 h 43 min | 3.20 GiB
Audio: English AC3 384 kbps, 2 channels | Subs: None
Genre: Documentary

Blessed Virgin. Sir John Eliot Gardiner conducts the Monteverdi Choir in its 50th anniversary year in this breathtaking performance of Monteverdi's Vespers of the Blessed Virgin.

General
Complete name : Monteverdi.Vespers.Of.The.Blessed.Virgin.2014.1080p.mkv
Format : Matroska
Format version : Version 4 / Version 2
File size : 3.20 GiB
Duration : 1 h 43 min
Overall bit rate : 4 440 kb/s

Video
ID : 1
Format : AVC
Format/Info : Advanced Video Codec
Format profile : High@L4
Format settings, CABAC : Yes
Format settings, ReFrames : 4 frames
Format settings, GOP : M=3, N=15
Codec ID : V_MPEG4/ISO/AVC
Duration : 1 h 43 min
Bit rate : 3 968 kb/s
Width : 1 920 pixels
Height : 1 080 pixels
Display aspect ratio : 16:9
Frame rate mode : Constant
Frame rate : 25.000 FPS
Standard : Component
Color space : YUV
Chroma subsampling : 4:2:0
Bit depth : 8 bits
Scan type : Interlaced
Scan type, store method : Separated fields
Scan order : Top Field First
Bits/(Pixel*Frame) : 0.077
Stream size : 2.86 GiB (89%)
Language : English
Default : Yes
Forced : No
Color range : Limited
Color primaries : BT.709
Transfer characteristics : BT.709
Matrix coefficients : BT.709

Audio
ID : 2
Format : AC-3
Format/Info : Audio Coding 3
Format settings, Endianness : Big
Codec ID : A_AC3
Duration : 1 h 43 min
Bit rate mode : Constant
Bit rate : 384 kb/s
Channel(s) : 2 channels
Channel positions : Front: L R
Sampling rate : 48.0 kHz
Frame rate : 31.250 FPS (1536 spf)
Bit depth : 16 bits
Compression mode : Lossy
Stream size : 284 MiB (9%)
Language : English
Service kind : Complete Main
Default : Yes
Forced : No

Menu
00:00:00.000 : en:PART_01
01:01:06.080 : en:PART_02


Screenshots:

Sky - Monteverdi Vespers Of The Blessed Virgin (2014)

Sky - Monteverdi Vespers Of The Blessed Virgin (2014)

Sky - Monteverdi Vespers Of The Blessed Virgin (2014)

Sky - Monteverdi Vespers Of The Blessed Virgin (2014)