Tags
Language
Tags

Morocco (1930) [Criterion Collection]

Posted By: RSU75
SD / BDRip IMDb
Morocco (1930) [Criterion Collection]

Morocco (1930) [Criterion Collection, Spine #931, + Extras]
BDRip | MKV | AVC 856x720, ~ 2.5 Mbps | 1hr 32mn | 1.78 GB + 96 MB
English: AC3, 1 ch, 256 kbps
Subtitles: English
Genre: Drama, Romance, Black & White

Criterion.com


Director: Josef von Sternberg (as Josef Von Sternberg)
Writers: Jules Furthman (adapted by), Benno Vigny (from the play "Amy Jolly" by)
Stars: Gary Cooper, Marlene Dietrich, Adolphe Menjou

With this romantic reverie, Marlene Dietrich made her triumphant debut before American audiences and unveiled the enthralling, insouciant persona that would define her Hollywood collaboration with director Josef von Sternberg. Set on the far side of the world but shot outside Los Angeles, Morocco navigates a labyrinth of melancholy and desire as the cabaret singer Amy Jolly (Dietrich), fleeing her former life, takes her act to the shores of North Africa, where she entertains the overtures of a wealthy man of the world while finding herself increasingly drawn to a strapping legionnaire with a shadowy past of his own (Gary Cooper). Fueled by the smoldering chemistry between its two stars, and shot in dazzling light and seductive shadow, the Oscar-nominated Morocco is a transfixing exploration of elemental passions.

Extras:
- Meimar on the Pacific, a new documentary about actor Marlene Dietrich’s German origins, featuring film scholars Gerd Gemünden and Noah Isenberg


Dietrich & von Sternberg in Hollywood (Spine #930):
- Morocco (1930)
- Dishonored (1931)
- Shanghai Express (1932)
- Blonde Venus (1932)
- The Scarlet Empress (1934)
- The Devil Is a Woman (1935)

Tasked by studio executives with finding the next great screen siren, visionary Hollywood director Josef von Sternberg joined forces with rising German actor Marlene Dietrich, kicking off what would become one of the most legendary partnerships in cinema history. Over the course of six films produced by Paramount in the 1930s, the pair refined their shared fantasy of pleasure, beauty, and excess. Dietrich’s coolly transgressive mystique was a perfect match for the provocative roles von Sternberg cast her in—including a sultry chanteuse, a cunning spy, and the hedonistic Catherine the Great—and the filmmaker captured her allure with chiaroscuro lighting and opulent design, conjuring fever-dream visions of exotic settings from Morocco to Shanghai. Suffused with frank sexuality and worldly irony, these deliriously entertaining masterpieces are landmarks of cinematic artifice.





General
Unique ID : 247510402956184462962274880830778356545 (0xBA34C508712F603BBA405B4E24A3B341)
Complete name : M:\Morocco.30.Cr.7p\Morocco.30.Cr.7p.mkv
Format : Matroska
Format version : Version 4 / Version 2
File size : 1.78 GiB
Duration : 1 h 32 min
Overall bit rate : 2 761 kb/s
Movie name : Release RSU75
Encoded date : UTC 2018-07-13 14:28:16
Writing application : mkvmerge v6.6.0 ('The Edge Of The In Between') built on Dec 1 2013 17:55:00
Writing library : libebml v1.3.0 + libmatroska v1.4.1

Video
ID : 1
Format : AVC
Format/Info : Advanced Video Codec
Format profile : High@L3.1
Format settings : CABAC / 4 Ref Frames
Format settings, CABAC : Yes
Format settings, RefFrames : 4 frames
Codec ID : V_MPEG4/ISO/AVC
Duration : 1 h 32 min
Bit rate : 2 500 kb/s
Width : 856 pixels
Height : 720 pixels
Display aspect ratio : 1.189
Frame rate mode : Constant
Frame rate : 23.976 (23976/1000) FPS
Color space : YUV
Chroma subsampling : 4:2:0
Bit depth : 8 bits
Scan type : Progressive
Bits/(Pixel*Frame) : 0.169
Stream size : 1.58 GiB (89%)
Writing library : x264 core 144 r2533 c8a773e
Encoding settings : cabac=1 / ref=4 / deblock=1:0:0 / analyse=0x3:0x113 / me=umh / subme=8 / psy=1 / psy_rd=1.00:0.00 / mixed_ref=1 / me_range=24 / chroma_me=1 / trellis=1 / 8x8dct=1 / cqm=0 / deadzone=21,11 / fast_pskip=1 / chroma_qp_offset=-2 / threads=3 / lookahead_threads=1 / sliced_threads=0 / nr=0 / decimate=1 / interlaced=0 / bluray_compat=0 / constrained_intra=0 / bframes=3 / b_pyramid=0 / b_adapt=2 / b_bias=0 / direct=3 / weightb=1 / open_gop=0 / weightp=2 / keyint=250 / keyint_min=25 / scenecut=40 / intra_refresh=0 / rc_lookahead=40 / rc=abr / mbtree=1 / bitrate=2500 / ratetol=1.0 / qcomp=0.60 / qpmin=10 / qpmax=51 / qpstep=4 / ip_ratio=1.41 / aq=1:1.00
Language : English
Default : Yes
Forced : No

Audio
ID : 2
Format : AC-3
Format/Info : Audio Coding 3
Format settings, Endianness : Big
Codec ID : A_AC3
Duration : 1 h 32 min
Bit rate mode : Constant
Bit rate : 256 kb/s
Channel(s) : 1 channel
Channel positions : Front: C
Sampling rate : 48.0 kHz
Frame rate : 31.250 FPS (1536 SPF)
Bit depth : 16 bits
Compression mode : Lossy
Delay relative to video : -5 ms
Stream size : 169 MiB (9%)
Language : English
Service kind : Complete Main
Default : Yes
Forced : No

Text
ID : 3
Format : PGS
Muxing mode : zlib
Codec ID : S_HDMV/PGS
Codec ID/Info : Picture based subtitle format used on BDs/HD-DVDs
Language : English
Default : No
Forced : No

Menu
00:00:00.000 : en:Chapter 01
00:01:53.863 : en:Chapter 02
00:07:04.006 : en:Chapter 03
00:10:02.602 : en:Chapter 04
00:20:20.844 : en:Chapter 05
00:26:44.686 : en:Chapter 06
00:39:26.614 : en:Chapter 07
00:46:52.184 : en:Chapter 08
00:54:29.975 : en:Chapter 09
01:01:55.712 : en:Chapter 10
01:05:39.936 : en:Chapter 11
01:09:25.452 : en:Chapter 12
01:13:04.880 : en:Chapter 13
01:18:00.509 : en:Chapter 14
01:20:34.287 : en:Chapter 15
01:26:42.155 : en:Chapter 16




Screenshots (click to enlarge to original size):

Morocco (1930) [Criterion Collection]

Morocco (1930) [Criterion Collection]

Morocco (1930) [Criterion Collection]


Morocco (1930) [Criterion Collection]



–––––––––––––––––––––––––––––––––––––––-