Tags
Language
Tags

Morocco from above (2018)

Posted By: notbanned
1080p (FullHD) / HDTV
Morocco from above (2018)

Morocco from above (2018)
HDTV | 1280x720 | .MKV/AVC @ 3267 Kbps | 2x~42min | 2.13 GiB
Audio: English MP2 192 kbps, 2 channels | Subs: English
Genre: Documentary

Morocco from Above is a high-end premium documentary of Yann Arthus-Bertrand on Morocco, shot exclusively from the sky. This documentary makes us discover that wonderful country from a brand new point of view, on the occasion of the UN climate conference (known as COP22) in Marrakesh in November 2016. Morocco is a gigantic fresco, elaborated around a trip among the flagship sites of the country. This travel goes through history, territories and humanities to draw an accurate portray. The camera carries us from one picture to another, from the dry coast to the fields with industrial complexes, from the cities to small villages. Each time, several visions are combined and intermingled, putting forward a unique physical geography, full of diversity: nature, the earth, the fields, cultures, wadis and valleys, mountains, the dry and the green of the plains, cereals as well as durum wheat…What the sky lets us discover, is how a country’s wealth is with no doubt coming from its land and from the humans working on it.

General
Unique ID : 278094913951978899012306088480487672105 (0xD13721D8EB976D8E4BBF2FAFBBDE8929)
Complete name : Morocco.From.Above.With.Adam.Liaw.Part.1.720p.mkv
Format : Matroska
Format version : Version 4 / Version 2
File size : 1.03 GiB
Duration : 42 min 39 s
Overall bit rate : 3 461 kb/s

Video
ID : 1
Format : AVC
Format/Info : Advanced Video Codec
Format profile : High@L4.1
Format settings, CABAC : Yes
Format settings, ReFrames : 5 frames
Codec ID : V_MPEG4/ISO/AVC
Duration : 42 min 39 s
Bit rate : 3 267 kb/s
Width : 1 280 pixels
Height : 720 pixels
Display aspect ratio : 16:9
Frame rate mode : Constant
Frame rate : 25.000 FPS
Color space : YUV
Chroma subsampling : 4:2:0
Bit depth : 8 bits
Scan type : Progressive
Bits/(Pixel*Frame) : 0.142
Stream size : 997 MiB (94%)
Writing library : x264 core 158 r2984 3759fcb
Encoding settings : cabac=1 / ref=5 / deblock=1:-2:-2 / analyse=0x3:0x113 / me=hex / subme=8 / psy=1 / psy_rd=1.00:0.00 / mixed_ref=1 / me_range=16 / chroma_me=1 / trellis=2 / 8x8dct=1 / cqm=0 / deadzone=21,11 / fast_pskip=1 / chroma_qp_offset=-2 / threads=12 / lookahead_threads=2 / sliced_threads=0 / nr=0 / decimate=1 / interlaced=0 / bluray_compat=0 / constrained_intra=0 / bframes=3 / b_pyramid=2 / b_adapt=1 / b_bias=0 / direct=3 / weightb=1 / open_gop=0 / weightp=2 / keyint=250 / keyint_min=25 / scenecut=40 / intra_refresh=0 / rc_lookahead=50 / rc=crf / mbtree=1 / crf=20.0 / qcomp=0.60 / qpmin=0 / qpmax=69 / qpstep=4 / ip_ratio=1.40 / aq=1:1.00
Language : English
Default : Yes
Forced : No

Audio
ID : 2
Format : MPEG Audio
Format version : Version 1
Format profile : Layer 2
Codec ID : A_MPEG/L2
Codec ID/Hint : MP2
Duration : 42 min 39 s
Bit rate mode : Constant
Bit rate : 192 kb/s
Channel(s) : 2 channels
Sampling rate : 48.0 kHz
Frame rate : 41.667 FPS (1152 spf)
Compression mode : Lossy
Stream size : 58.6 MiB (6%)
Language : English
Default : Yes
Forced : No

Text
ID : 3
Format : UTF-8
Codec ID : S_TEXT/UTF8
Codec ID/Info : UTF-8 Plain Text
Duration : 41 min 13 s
Bit rate : 51 b/s
Count of elements : 380
Stream size : 15.7 KiB (0%)
Language : English
Default : No
Forced : No


Screenshots:

Morocco from above (2018)

Morocco from above (2018)

Morocco from above (2018)

Morocco from above (2018)