Tags
Language
Tags

Mr. Robot S03E01

Posted By: Tavaz
720p (HD) / WEBRip IMDb
Mr. Robot S03E01

Mr. Robot S03E01
WEBRip | MKV | 1280x720 | English | H264 @ 4057 kbps | E-AC-3 @ 640 kbps | 53 min 24 s | 1.75 GiB
Subtitles: English
Genre: Mystery, Crime, Drama

A contemporary and culturally resonant drama about a young programmer, Elliot, who suffers from a debilitating anti-social disorder and decides that he can only connect to people by hacking them. He wields his skills as a weapon to protect the people that he cares about. Elliot will find himself in the intersection between a cybersecurity firm he works for and the underworld organizations that are recruiting him to bring down corporate America.

Mr.Robot.S03E01.eps3.0.power-saver-mode.h.720p.AMZN.WEBRip.DDP5.1.x264-NTb.mkv (1.8 GB)



General
Unique ID : 246273295874789691538052152411415398508 (0xB94682F1D9498F84AE27CB483BA0486C)
Complete name : ./Mr.Robot.S03E01.eps3.0.power-saver-mode.h.720p.AMZN.WEBRip.DDP5.1.x264-NTb.mkv
Format : Matroska
Format version : Version 4 / Version 2
File size : 1.75 GiB
Duration : 53 min 24 s
Overall bit rate : 4 700 kb/s
Encoded date : UTC 2017-10-12 13:48:45
Writing application : mkvmerge v10.0.0 ('To Drown In You') 64bit
Writing library : libebml v1.3.4 + libmatroska v1.4.5

Video
ID : 1
Format : AVC
Format/Info : Advanced Video Codec
Format profile : High@L4.1
Format settings : CABAC / 9 Ref Frames
Format settings, CABAC : Yes
Format settings, RefFrames : 9 frames
Codec ID : V_MPEG4/ISO/AVC
Duration : 53 min 24 s
Bit rate : 4 058 kb/s
Width : 1 280 pixels
Height : 720 pixels
Display aspect ratio : 16:9
Frame rate mode : Constant
Frame rate : 23.976 (24000/1001) FPS
Color space : YUV
Chroma subsampling : 4:2:0
Bit depth : 8 bits
Scan type : Progressive
Bits/(Pixel*Frame) : 0.184
Stream size : 1.51 GiB (86%)
Writing library : x264 core 148 r2638 7599210
Encoding settings : cabac=1 / ref=9 / deblock=1:-3:-3 / analyse=0x3:0x133 / me=umh / subme=10 / psy=1 / psy_rd=1.00:0.00 / mixed_ref=1 / me_range=48 / chroma_me=1 / trellis=2 / 8x8dct=1 / cqm=0 / deadzone=21,11 / fast_pskip=0 / chroma_qp_offset=-2 / threads=12 / lookahead_threads=2 / sliced_threads=0 / nr=0 / decimate=0 / interlaced=0 / bluray_compat=0 / constrained_intra=0 / bframes=9 / b_pyramid=0 / b_adapt=2 / b_bias=0 / direct=3 / weightb=1 / open_gop=0 / weightp=2 / keyint=240 / keyint_min=23 / scenecut=40 / intra_refresh=0 / rc=crf / mbtree=0 / crf=17.0 / qcomp=0.60 / qpmin=10 / qpmax=51 / qpstep=4 / ip_ratio=1.40 / pb_ratio=1.30 / aq=3:0.70
Default : Yes
Forced : No

Audio
ID : 2
Format : E-AC-3
Format/Info : Enhanced Audio Coding 3
Format settings, Endianness : Big
Codec ID : A_EAC3
Duration : 53 min 24 s
Bit rate mode : Constant
Bit rate : 640 kb/s
Channel(s) : 6 channels
Channel positions : Front: L C R, Side: L R, LFE
Sampling rate : 48.0 kHz
Frame rate : 187.500 FPS (256 SPF)
Compression mode : Lossy
Stream size : 244 MiB (14%)
Language : English
Service kind : Complete Main
Default : Yes
Forced : No

Text
ID : 3
Format : UTF-8
Codec ID : S_TEXT/UTF8
Codec ID/Info : UTF-8 Plain Text
Duration : 52 min 50 s
Bit rate : 66 b/s
Count of elements : 1092
Stream size : 25.7 KiB (0%)
Language : English
Default : No
Forced : No

Menu
00:00:00.000 : en:Studio Logo
00:00:05.000 : en:Previously On
00:02:20.000 : en:Irving talks about redeeming a coupon
00:04:19.000 : en:Irving comes to see Elliot
00:06:18.000 : en:Whiterose wants to get the work done from Elliott
00:09:28.000 : en:Title Sequence
00:10:03.000 : en:Angela explains Elliot about how he came to her house
00:13:21.000 : en:Elliot asks help from Darlene
00:19:43.000 : en:Elliot tries to help the hackers to win the competition
00:25:43.000 : en:Irving rescues Elliot and Darlene
00:28:29.000 : en:Elliot decides to call the operation off
00:33:25.000 : en:Elliot blames himself for all the mistakes
00:37:27.000 : en:Elliot asks Angela to get him a job at Evil Corp
00:42:08.000 : en:Mr. Robot comes to know about backdoor
00:45:09.000 : en:Angela tells Irving that she is going to offer a job to Elliott
00:48:24.000 : en:Mr. Robot wants to know Angela's intentions to help them
00:52:57.000 : en:End Credits





Mr. Robot S03E01


Mr. Robot S03E01


Mr. Robot S03E01


Mr. Robot S03E01


Mr. Robot S03E01

All episodes