Tags
Language
Tags

Mr. Robot S03E02

Posted By: Tavaz
SD / HDTV IMDb
Mr. Robot S03E02

Mr. Robot S03E02
HDTV | AVI | 640x360 | MP4V-ES @ 487 kbps | MPEG Audio @ 128 kbps | 46 min 44 s | 209 MiB
Genre: Mystery, Crime, Drama

A contemporary and culturally resonant drama about a young programmer, Elliot, who suffers from a debilitating anti-social disorder and decides that he can only connect to people by hacking them. He wields his skills as a weapon to protect the people that he cares about. Elliot will find himself in the intersection between a cybersecurity firm he works for and the underworld organizations that are recruiting him to bring down corporate America.

Mr.Robot.S03E02.HDTV.HebSubs.XviD-AFG.avi (208.9 MB)



General
Complete name : ./Mr.Robot.S03E02.HDTV.HebSubs.XviD-AFG.avi
Format : AVI
Format/Info : Audio Video Interleave
File size : 209 MiB
Duration : 46 min 44 s
Overall bit rate : 625 kb/s
Writing application : VirtualDubMod 1.5.10.2 (build 2542/release)
Writing library : VirtualDubMod build 2542/release

Video
ID : 0
Format : MPEG-4 Visual
Format profile : Simple@L3
Format settings, BVOP : No
Format settings, QPel : No
Format settings, GMC : No warppoints
Format settings, Matrix : Default (H.263)
Codec ID : XVID
Codec ID/Hint : XviD
Duration : 46 min 44 s
Bit rate : 488 kb/s
Width : 640 pixels
Height : 360 pixels
Display aspect ratio : 16:9
Frame rate : 23.976 (24000/1001) FPS
Color space : YUV
Chroma subsampling : 4:2:0
Bit depth : 8 bits
Scan type : Progressive
Compression mode : Lossy
Bits/(Pixel*Frame) : 0.088
Stream size : 163 MiB (78%)
Writing library : XviD 64

Audio
ID : 1
Format : MPEG Audio
Format version : Version 1
Format profile : Layer 3
Format settings : Joint stereo / MS Stereo
Mode : Joint stereo
Mode extension : MS Stereo
Codec ID : 55
Codec ID/Hint : MP3
Duration : 46 min 43 s
Bit rate mode : Constant
Bit rate : 128 kb/s
Channel(s) : 2 channels
Sampling rate : 48.0 kHz
Compression mode : Lossy
Stream size : 42.8 MiB (20%)
Alignment : Aligned on interleaves
Interleave, duration : 42 ms (1.00 video frame)
Interleave, preload duration : 504 ms





Mr. Robot S03E02


Mr. Robot S03E02


Mr. Robot S03E02


Mr. Robot S03E02


Mr. Robot S03E02

All episodes