Tags
Language
Tags

Mr. Robot S03E06

Posted By: Tavaz
720p (HD) / WEBRip IMDb
Mr. Robot S03E06

Mr. Robot S03E06
WEBRip | MKV | 1280x720 | English | H264 @ 3233 kbps | E-AC-3 @ 640 kbps | 45 min 38 s | 1.24 GiB
Subtitles: English
Genre: Mystery, Crime, Drama

A contemporary and culturally resonant drama about a young programmer, Elliot, who suffers from a debilitating anti-social disorder and decides that he can only connect to people by hacking them. He wields his skills as a weapon to protect the people that he cares about. Elliot will find himself in the intersection between a cybersecurity firm he works for and the underworld organizations that are recruiting him to bring down corporate America.

Mr.Robot.S03E06.eps3.5.kill-process.inc.720p.AMZN.WEBRip.DDP5.1.x264-NTb.mkv (1.2 GB)



General
Unique ID : 188055227908462311829120573988440169522 (0x8D7A1E951C51149CA7DD1F0A0754DC32)
Complete name : ./Mr.Robot.S03E06.eps3.5.kill-process.inc.720p.AMZN.WEBRip.DDP5.1.x264-NTb.mkv
Format : Matroska
Format version : Version 4 / Version 2
File size : 1.24 GiB
Duration : 45 min 38 s
Overall bit rate : 3 875 kb/s
Encoded date : UTC 2017-11-16 05:14:38
Writing application : mkvmerge v10.0.0 ('To Drown In You') 64bit
Writing library : libebml v1.3.4 + libmatroska v1.4.5

Video
ID : 1
Format : AVC
Format/Info : Advanced Video Codec
Format profile : High@L4.1
Format settings : CABAC / 9 Ref Frames
Format settings, CABAC : Yes
Format settings, RefFrames : 9 frames
Codec ID : V_MPEG4/ISO/AVC
Duration : 45 min 38 s
Bit rate : 3 233 kb/s
Width : 1 280 pixels
Height : 720 pixels
Display aspect ratio : 16:9
Frame rate mode : Constant
Frame rate : 23.976 (24000/1001) FPS
Color space : YUV
Chroma subsampling : 4:2:0
Bit depth : 8 bits
Scan type : Progressive
Bits/(Pixel*Frame) : 0.146
Stream size : 1.03 GiB (83%)
Writing library : x264 core 148 r2744 b97ae06
Encoding settings : cabac=1 / ref=9 / deblock=1:-3:-3 / analyse=0x3:0x133 / me=umh / subme=10 / psy=1 / psy_rd=1.00:0.00 / mixed_ref=1 / me_range=48 / chroma_me=1 / trellis=2 / 8x8dct=1 / cqm=0 / deadzone=21,11 / fast_pskip=0 / chroma_qp_offset=-2 / threads=12 / lookahead_threads=2 / sliced_threads=0 / nr=0 / decimate=0 / interlaced=0 / bluray_compat=0 / constrained_intra=0 / bframes=9 / b_pyramid=0 / b_adapt=2 / b_bias=0 / direct=3 / weightb=1 / open_gop=0 / weightp=2 / keyint=240 / keyint_min=23 / scenecut=40 / intra_refresh=0 / rc_lookahead=60 / rc=crf / mbtree=0 / crf=17.0 / qcomp=0.60 / qpmin=10 / qpmax=51 / qpstep=4 / vbv_maxrate=62500 / vbv_bufsize=78125 / crf_max=0.0 / nal_hrd=none / filler=0 / ip_ratio=1.40 / pb_ratio=1.30 / aq=3:0.70
Default : Yes
Forced : No

Audio
ID : 2
Format : E-AC-3
Format/Info : Enhanced Audio Coding 3
Format settings, Endianness : Big
Codec ID : A_EAC3
Duration : 45 min 38 s
Bit rate mode : Constant
Bit rate : 640 kb/s
Channel(s) : 6 channels
Channel positions : Front: L C R, Side: L R, LFE
Sampling rate : 48.0 kHz
Frame rate : 187.500 FPS (256 SPF)
Compression mode : Lossy
Stream size : 209 MiB (17%)
Language : English
Service kind : Complete Main
Default : Yes
Forced : No

Text
ID : 3
Format : UTF-8
Codec ID : S_TEXT/UTF8
Codec ID/Info : UTF-8 Plain Text
Duration : 45 min 34 s
Bit rate : 65 b/s
Count of elements : 845
Stream size : 21.9 KiB (0%)
Language : English
Default : No
Forced : No





Mr. Robot S03E06


Mr. Robot S03E06


Mr. Robot S03E06


Mr. Robot S03E06


Mr. Robot S03E06

All episodes