Mr. Mercedes S01E08 (2017)

Posted By: JohnSmith
Mr. Mercedes S01E08 (2017)

Mr. Mercedes S01E08 (2017)
WEBRip 720p | MKV / AVC@2325 kb/s | 1280x718 | 50mn | 975 MB | English: AC3, 384 kb/s (2 ch)
Genre: Thriller

Tells the story of a psychopathic killer who drives a stolen Mercedes into a crowd and a recently retired detective who tries to bring him down.




General
Unique ID : 208986197034624676188359936886128041627 (0x9D39470924949351BE7D4D362B28DE9B)
Complete name : D:\Downloads\Mr.Mercedes.S01E08.720p.WEBRip.x264-eSc\Mr.Mercedes.S01E08.720p.WEBRip.x264-eSc.mkv
Format : Matroska
Format version : Version 4 / Version 2
File size : 975 MiB
Duration : 50 min 15 s
Overall bit rate : 2 711 kb/s
Encoded date : UTC 2017-09-28 03:13:22
Writing application : mkvmerge v9.0.1 ('Obstacles') 64bit
Writing library : libebml v1.3.3 + libmatroska v1.4.4

Video
ID : 1
Format : AVC
Format/Info : Advanced Video Codec
Format profile : High@L3.1
Format settings, CABAC : Yes
Format settings, ReFrames : 5 frames
Codec ID : V_MPEG4/ISO/AVC
Duration : 50 min 15 s
Bit rate : 2 325 kb/s
Width : 1 280 pixels
Height : 718 pixels
Display aspect ratio : 16:9
Frame rate mode : Constant
Frame rate : 29.970 (30000/1001) FPS
Color space : YUV
Chroma subsampling : 4:2:0
Bit depth : 8 bits
Scan type : Progressive
Bits/(Pixel*Frame) : 0.084
Stream size : 836 MiB (86%)
Writing library : x264 core 142 r2479 dd79a61
Encoding settings : cabac=1 / ref=5 / deblock=1:0:0 / analyse=0x3:0x113 / me=umh / subme=8 / psy=1 / psy_rd=1.00:0.00 / mixed_ref=1 / me_range=16 / chroma_me=1 / trellis=1 / 8x8dct=1 / cqm=0 / deadzone=21,11 / fast_pskip=1 / chroma_qp_offset=-2 / threads=12 / lookahead_threads=2 / sliced_threads=0 / nr=0 / decimate=1 / interlaced=0 / bluray_compat=0 / constrained_intra=0 / bframes=3 / b_pyramid=2 / b_adapt=2 / b_bias=0 / direct=3 / weightb=1 / open_gop=0 / weightp=2 / keyint=300 / keyint_min=30 / scenecut=40 / intra_refresh=0 / rc_lookahead=50 / rc=crf / mbtree=1 / crf=18.0 / qcomp=0.60 / qpmin=0 / qpmax=69 / qpstep=4 / vbv_maxrate=17500 / vbv_bufsize=17500 / crf_max=0.0 / nal_hrd=none / filler=0 / ip_ratio=1.40 / aq=1:1.00
Default : Yes
Forced : No
Color range : Limited
Color primaries : BT.709
Transfer characteristics : BT.709
Matrix coefficients : BT.709

Audio
ID : 2
Format : AC-3
Format/Info : Audio Coding 3
Format settings, Endianness : Big
Codec ID : A_AC3
Duration : 50 min 15 s
Bit rate mode : Constant
Bit rate : 384 kb/s
Channel(s) : 2 channels
Channel positions : Front: L R
Sampling rate : 48.0 kHz
Frame rate : 31.250 FPS (1536 spf)
Bit depth : 16 bits
Compression mode : Lossy
Delay relative to video : -5 ms
Stream size : 138 MiB (14%)
Title : Stereo
Language : English
Service kind : Complete Main
Default : Yes
Forced : No




Screenshots

Mr. Mercedes S01E08 (2017)

Mr. Mercedes S01E08 (2017)

Mr. Mercedes S01E08 (2017)