Mr. Mercedes S01E09 (2017)

Posted By: JohnSmith
Mr. Mercedes S01E09 (2017)

Mr. Mercedes S01E09 (2017)
WEBRip 720p | MKV / AVC@3370 kb/s | 1280x720 | 49mn | 1.24 GB
English: AC3, 192 kb/s (2 ch) | Subtitles: English
Genre: Thriller

Tells the story of a psychopathic killer who drives a stolen Mercedes into a crowd and a recently retired detective who tries to bring him down.




General
Unique ID : 189055528097025100507576636761993997158 (0x8E3AC53081A95B6DAD8EA28E8DA16B66)
Complete name : D:\Downloads\Mr.Mercedes.S01E09.Ice.Cream.You.Scream.We.All.Scream.720p.DTV.WEBRip.DD2.0.x264-NTb[rarbg]\Mr.Mercedes.S01E09.Ice.Cream.You.Scream.We.All.Scream.720p.DTV.WEB-DL.DD2.0.x264-NTb.mkv
Format : Matroska
Format version : Version 4 / Version 2
File size : 1.24 GiB
Duration : 49 min 37 s
Overall bit rate : 3 564 kb/s
Encoded date : UTC 2017-10-05 13:16:16
Writing application : mkvmerge v11.0.0 ('Alive') 64bit
Writing library : libebml v1.3.4 + libmatroska v1.4.5

Video
ID : 1
Format : AVC
Format/Info : Advanced Video Codec
Format profile : High@L3.1
Format settings, CABAC : Yes
Format settings, ReFrames : 4 frames
Codec ID : V_MPEG4/ISO/AVC
Duration : 49 min 37 s
Bit rate mode : Constant
Bit rate : 3 370 kb/s
Nominal bit rate : 4 000 kb/s / 4 000 kb/s
Width : 1 280 pixels
Height : 720 pixels
Display aspect ratio : 16:9
Frame rate mode : Constant
Frame rate : 23.976 (24000/1001) FPS
Color space : YUV
Chroma subsampling : 4:2:0
Bit depth : 8 bits
Scan type : Progressive
Bits/(Pixel*Frame) : 0.153
Stream size : 1.17 GiB (95%)
Writing library : x264 core 148
Encoding settings : cabac=1 / ref=4 / deblock=1:0:0 / analyse=0x3:0x113 / me=hex / subme=7 / psy=1 / psy_rd=1.00:0.00 / mixed_ref=1 / me_range=16 / chroma_me=1 / trellis=2 / 8x8dct=1 / cqm=0 / deadzone=21,11 / fast_pskip=1 / chroma_qp_offset=-2 / threads=12 / lookahead_threads=2 / sliced_threads=0 / nr=0 / decimate=1 / interlaced=0 / bluray_compat=0 / constrained_intra=0 / bframes=6 / b_pyramid=2 / b_adapt=1 / b_bias=0 / direct=1 / weightb=1 / open_gop=1 / weightp=2 / keyint=9000000 / keyint_min=4500001 / scenecut=40 / intra_refresh=0 / rc_lookahead=96 / rc=2pass / mbtree=1 / bitrate=4000 / ratetol=1.0 / qcomp=0.60 / qpmin=0 / qpmax=69 / qpstep=4 / cplxblur=20.0 / qblur=0.5 / vbv_maxrate=4000 / vbv_bufsize=1000 / nal_hrd=cbr / filler=1 / ip_ratio=1.40 / aq=1:1.00
Language : English
Default : Yes
Forced : No

Audio
ID : 2
Format : AC-3
Format/Info : Audio Coding 3
Format settings, Endianness : Big
Codec ID : A_AC3
Duration : 49 min 37 s
Bit rate mode : Constant
Bit rate : 192 kb/s
Channel(s) : 2 channels
Channel positions : Front: L R
Sampling rate : 48.0 kHz
Frame rate : 31.250 FPS (1536 spf)
Bit depth : 16 bits
Compression mode : Lossy
Stream size : 68.1 MiB (5%)
Language : English
Service kind : Complete Main
Default : Yes
Forced : No

Text
ID : 3
Format : UTF-8
Codec ID : S_TEXT/UTF8
Codec ID/Info : UTF-8 Plain Text
Duration : 49 min 8 s
Bit rate : 77 b/s
Count of elements : 937
Stream size : 27.9 KiB (0%)
Language : English
Default : No
Forced : No




Screenshots

Mr. Mercedes S01E09 (2017)

Mr. Mercedes S01E09 (2017)

Mr. Mercedes S01E09 (2017)