Tags
Language
Tags

Mr. Popper's Penguins (2011)

Posted By: FenixN
Mr. Popper's Penguins (2011)

Mr. Popper's Penguins (2011)
TS | AVI / XviD, 983 kb/s | 720x400 | 01:27:18 | German: MP3, 128 kb/s (2 ch) | 700 mb
Genre: Comedy, Family | USA

Geschäftsmann Tom Popper führt ein geordnetes Arbeitsleben, in dem kaum Zeit für seine beiden Kinder, geschweige denn für Freizeit bleibt. Das strukturierte Dasein des Arbeitstiers wird von heute auf morgen über den Haufen geworfen als Toms verstorbener Vater, ein abenteuerlustiger Arktikforscher, seinem Sohn eine schnatternde Erbschaft hinterlässt. Ein Pinguin hält Mr. Popper von nun an gehörig auf Trab und verwandelt sein luxuriöses Apartment in eine verschneite Winterlandschaft. Als sich Mr. Popper nach erfolgreicher Pinguin-Balz plötzlich von einer ganzen Schar junger Frackträger umwuselt findet, muss er improvisieren damit seine berufliche Karriere nicht den Bach runter geht.

imdb: 5/10 (3,501 votes)

Format : AVI
Format/Info : Audio Video Interleave
File size : 700 MiB
Duration : 1h 27mn
Overall bit rate : 1 121 Kbps
Writing application : VirtualDubMod 1.5.10.2 (build 2540/release)
Writing library : VirtualDubMod build 2540/release

Video
ID : 0
Format : MPEG-4 Visual
Format profile : Advanced Simple@L5
Format settings, BVOP : 2
Format settings, QPel : No
Format settings, GMC : No warppoints
Format settings, Matrix : Default (H.263)
Muxing mode : Packed bitstream
Codec ID : XVID
Codec ID/Hint : XviD
Duration : 1h 27mn
Bit rate : 983 Kbps
Width : 720 pixels
Height : 400 pixels
Display aspect ratio : 16:9
Frame rate : 25.000 fps
Color space : YUV
Chroma subsampling : 4:2:0
Bit depth : 8 bits
Scan type : Progressive
Compression mode : Lossy
Bits/(Pixel*Frame) : 0.137
Stream size : 614 MiB (88%)
Writing library : XviD 62

Audio
ID : 1
Format : MPEG Audio
Format version : Version 1
Format profile : Layer 3
Mode : Joint stereo
Mode extension : MS Stereo
Codec ID : 55
Codec ID/Hint : MP3
Duration : 1h 27mn
Bit rate mode : Constant
Bit rate : 128 Kbps
Channel(s) : 2 channels
Sampling rate : 44.1 KHz
Compression mode : Lossy
Stream size : 79.9 MiB (11%)
Alignment : Split accross interleaves
Interleave, duration : 40 ms (1.00 video frame)
Interleave, preload duration : 500 ms


screenshot
Mr. Popper's Penguins (2011)

Mr. Popper's Penguins (2011)

Mr. Popper's Penguins (2011)


Welcome to the best movies collection (English, German, French language), best software, best eLearning video and many-many more: LINK
Do not forget to check my blog! Updated regularly!