Tags
Language
Tags

Museo (2018)

Posted By: Without
1080p (FullHD) / WEB-DL IMDb
Museo (2018)

Museo (2018)
WEB-DL 1080p | MKV | 1920x1080 | AVC@2572 kb/s | Spanish AAC@384 kb/s (6 ch) | 2 h 6 min | 2.61 GB
Subs: English, German, Spanish, French, Japanese, Portuguese, Russian
Genre: Crime | Drama

In 1985, a group of criminals mock the security of the National Museum of Anthropology in Mexico City to extract 140 pre-Hispanic pieces from their showcases.

IMDB - 3 wins & 11 nominations.


General
Museo.2018.1080p.WEB-DL.AAC5.1.H264-PIETAS.mkv
Format : Matroska
Format version : Version 4 / Version 2
File size : 2.61 GiB
Duration : 2 h 6 min
Overall bit rate : 2 959 kb/s
Encoded date : UTC 2018-12-19 22:54:22
Writing application : mkvmerge v25.0.0 ('Prog Noir') 64-bit
Writing library : libebml v1.3.6 + libmatroska v1.4.9

Video
ID : 9
Format : AVC
Format/Info : Advanced Video Codec
Format profile : High@L4
Format settings, CABAC : Yes
Format settings, ReFrames : 2 frames
Codec ID : V_MPEG4/ISO/AVC
Duration : 2 h 6 min
Bit rate : 2 572 kb/s
Width : 1 920 pixels
Height : 1 080 pixels
Display aspect ratio : 16:9
Frame rate mode : Constant
Frame rate : 24.000 FPS
Color space : YUV
Chroma subsampling : 4:2:0
Bit depth : 8 bits
Scan type : Progressive
Bits/(Pixel*Frame) : 0.052
Stream size : 2.27 GiB (87%)
Default : Yes
Forced : No
Color range : Limited
Color primaries : BT.709
Transfer characteristics : BT.709
Matrix coefficients : BT.709

Audio
ID : 10
Format : AAC
Format/Info : Advanced Audio Codec
Format profile : LC
Codec ID : A_AAC
Duration : 2 h 6 min
Bit rate : 384 kb/s
Channel(s) : 6 channels
Channel positions : Front: L C R, Side: L R, LFE
Sampling rate : 48.0 kHz
Frame rate : 46.875 FPS (1024 spf)
Compression mode : Lossy
Stream size : 347 MiB (13%)
Language : Spanish
Default : Yes
Forced : No

Text #1
ID : 1
Format : UTF-8
Codec ID : S_TEXT/UTF8
Codec ID/Info : UTF-8 Plain Text
Duration : 2 h 6 min
Bit rate : 52 b/s
Count of elements : 1225
Stream size : 49.0 KiB (0%)
Language : German
Default : No
Forced : No

Text #2
ID : 2
Format : UTF-8
Codec ID : S_TEXT/UTF8
Codec ID/Info : UTF-8 Plain Text
Duration : 2 h 1 min
Bit rate : 50 b/s
Count of elements : 1226
Stream size : 45.2 KiB (0%)
Language : English
Default : Yes
Forced : No

Text #3
ID : 3
Format : UTF-8
Codec ID : S_TEXT/UTF8
Codec ID/Info : UTF-8 Plain Text
Duration : 2 h 1 min
Bit rate : 48 b/s
Count of elements : 1188
Stream size : 43.3 KiB (0%)
Language : Spanish
Default : No
Forced : No

Text #4
ID : 4
Format : UTF-8
Codec ID : S_TEXT/UTF8
Codec ID/Info : UTF-8 Plain Text
Duration : 2 h 1 min
Bit rate : 54 b/s
Count of elements : 1224
Stream size : 49.0 KiB (0%)
Language : French
Default : No
Forced : No

Text #5
ID : 5
Format : UTF-8
Codec ID : S_TEXT/UTF8
Codec ID/Info : UTF-8 Plain Text
Duration : 2 h 1 min
Bit rate : 41 b/s
Count of elements : 1352
Stream size : 37.0 KiB (0%)
Language : Japanese
Default : No
Forced : No

Text #6
ID : 6
Format : UTF-8
Codec ID : S_TEXT/UTF8
Codec ID/Info : UTF-8 Plain Text
Duration : 2 h 1 min
Bit rate : 54 b/s
Count of elements : 1212
Stream size : 48.6 KiB (0%)
Default : No
Forced : No

Text #7
ID : 7
Format : UTF-8
Codec ID : S_TEXT/UTF8
Codec ID/Info : UTF-8 Plain Text
Duration : 2 h 1 min
Bit rate : 49 b/s
Count of elements : 1223
Stream size : 44.0 KiB (0%)
Language : Portuguese
Default : No
Forced : No

Text #8
ID : 8
Format : UTF-8
Codec ID : S_TEXT/UTF8
Codec ID/Info : UTF-8 Plain Text
Duration : 2 h 1 min
Bit rate : 76 b/s
Count of elements : 1217
Stream size : 68.6 KiB (0%)
Language : Russian
Default : No
Forced : No



WEB-DL 1080p Screenshots

Museo (2018)

Museo (2018)

Museo (2018)

Museo (2018)

Museo (2018)

Museo (2018)


Come Visit My Blog (•‿•)