Tags
Language
Tags

My Christmas Love (2016)

Posted By: Tavaz
1080p (FullHD) / BDRip IMDb
My Christmas Love (2016)

My Christmas Love (2016)
BDRip | MKV | 1920x1080 | English | H264 @ 5760 kbps | AC-3 @ 448 kbps | 1 h 25 min | 3.69 GiB
Genre: Comedy, Romance

A hopeless romantic who can't ever seem to give a guy a real chance begins receiving each of the "12 Days of Christmas" as gifts anonymously at her door and begins to believe that the mystery suitor may finally live up to her expectations.,As a hopeless romantic, Cynthia is crushed when her boyfriend breaks up with her right before the holidays. With love no longer an option for her, she coaxes her friend Liam to go home with her for her sister's Christmas wedding. When she starts receiving all of the gifts from "The 12 Days of Christmas" at her door, she thinks one of her exes might be trying to get back together with her. Now, Cynthia is determined to discover who is behind this epic romantic gesture, a gesture so elaborate that it must mean true love. The search proves to be more arduous than she first expected, and when all hope seems lost, she discovers that true love might have been standing in front of her the whole time.::Happy_Evil_Dude,When a young woman's return to her small hometown for the holidays prompts twelve days of elaborate gifting from an anonymous sender, she is convinced that one of her former boyfriends is behind the grand gesture and becomes determined to find out the identity of her "own true love."::Happy_Evil_Dude

My.Christmas.Love.2016.1080p.BluRay.x264-OFT.mkv (3.7 GB)



General
Unique ID : 195589418132694432096155950712382821996 (0x932526D70974704DF74A90E7C78C166C)
Complete name : ./My.Christmas.Love.2016.1080p.BluRay.x264-OFT.mkv
Format : Matroska
Format version : Version 4 / Version 2
File size : 3.69 GiB
Duration : 1 h 25 min
Overall bit rate : 6 210 kb/s
Movie name : My.Christmas.Love.2016.1080p.BluRay.x264-OFT
Encoded date : UTC 2022-04-28 01:04:26 / UTC 2022-04-27T07:28:22Z
Writing application : mkvmerge v60.0.0 ('Are We Copies?') 64-bit
Writing library : libebml v1.4.2 + libmatroska v1.6.4 / Lavf57.7.2

Video
ID : 1
Format : AVC
Format/Info : Advanced Video Codec
Format profile : High@L4
Format settings : CABAC / 4 Ref Frames
Format settings, CABAC : Yes
Format settings, RefFrames : 4 frames
Codec ID : V_MPEG4/ISO/AVC
Duration : 1 h 25 min
Bit rate : 5 760 kb/s
Width : 1 920 pixels
Height : 1 080 pixels
Display aspect ratio : 16:9
Frame rate mode : Constant
Frame rate : 23.976 (24000/1001) FPS
Color space : YUV
Chroma subsampling : 4:2:0
Bit depth : 8 bits
Scan type : Progressive
Bits/(Pixel*Frame) : 0.116
Stream size : 3.35 GiB (91%)
Writing library : x264 core 155 r2901 7d0ff22
Encoding settings : cabac=1 / ref=4 / deblock=1:-3:-3 / analyse=0x3:0x133 / me=umh / subme=9 / psy=1 / psy_rd=1.10:0.25 / mixed_ref=1 / me_range=32 / chroma_me=1 / trellis=2 / 8x8dct=1 / cqm=0 / deadzone=6,6 / fast_pskip=1 / chroma_qp_offset=-4 / threads=34 / lookahead_threads=3 / sliced_threads=0 / nr=0 / decimate=1 / interlaced=0 / bluray_compat=0 / constrained_intra=0 / bframes=6 / b_pyramid=2 / b_adapt=2 / b_bias=0 / direct=3 / weightb=1 / open_gop=0 / weightp=2 / keyint=240 / keyint_min=24 / scenecut=40 / intra_refresh=0 / rc_lookahead=40 / rc=2pass / mbtree=1 / bitrate=5760 / ratetol=1.0 / qcomp=0.60 / qpmin=0 / qpmax=69 / qpstep=4 / cplxblur=20.0 / qblur=0.5 / vbv_maxrate=20000 / vbv_bufsize=25000 / nal_hrd=none / filler=0 / ip_ratio=1.40 / aq=1:1.00
Language : English
Default : Yes
Forced : No
Color range : Limited
Color primaries : BT.709
Transfer characteristics : BT.709
Matrix coefficients : BT.709
Statistics Tags Issue : mkvmerge v60.0.0 ('Are We Copies?') 64-bit 2022-04-28 01:04:26 / mkvmerge v60.0.0 ('Are We Copies?') 64-bit 2022-04-28 01:04:26 / UTC 2022-04-27T07:28:22Z
FromStats_BitRate : 5760104
FromStats_Duration : 01:25:08.687000000
FromStats_FrameCount : 122486
FromStats_StreamSize : 3678321404

Audio
ID : 2
Format : AC-3
Format/Info : Audio Coding 3
Format settings, Endianness : Big
Codec ID : A_AC3
Duration : 1 h 25 min
Bit rate mode : Constant
Bit rate : 448 kb/s
Channel(s) : 6 channels
Channel positions : Front: L C R, Side: L R, LFE
Sampling rate : 48.0 kHz
Frame rate : 31.250 FPS (1536 SPF)
Bit depth : 16 bits
Compression mode : Lossy
Stream size : 273 MiB (7%)
Title : Surround
Language : English
Service kind : Complete Main
Default : Yes
Forced : No
Statistics Tags Issue : mkvmerge v60.0.0 ('Are We Copies?') 64-bit 2022-04-28 01:04:26 / mkvmerge v60.0.0 ('Are We Copies?') 64-bit 2022-04-28 01:04:26 / UTC 2022-04-27T07:28:22Z
FromStats_BitRate : 448000
FromStats_Duration : 01:25:08.704000000
FromStats_FrameCount : 159647
FromStats_StreamSize : 286087424

Menu
00:00:00.000 : :Chapter 1
00:02:32.944 : :Chapter 2
00:08:58.538 : :Chapter 3
00:13:15.920 : :Chapter 4
00:23:33.203 : :Chapter 5
00:33:36.598 : :Chapter 6
00:43:09.212 : :Chapter 7
00:49:19.373 : :Chapter 8
00:56:53.368 : :Chapter 9
01:07:49.274 : :Chapter 10
01:17:40.573 : :Chapter 11
01:24:38.365 : :Chapter 12





My Christmas Love (2016)


My Christmas Love (2016)


My Christmas Love (2016)


My Christmas Love (2016)


My Christmas Love (2016)