Tags
Language
Tags
June 2024
Su Mo Tu We Th Fr Sa
26 27 28 29 30 31 1
2 3 4 5 6 7 8
9 10 11 12 13 14 15
16 17 18 19 20 21 22
23 24 25 26 27 28 29
30 1 2 3 4 5 6

My Perfect Romance (2018)

Posted By: Barfin
1080p (FullHD) / WEBRip IMDb
My Perfect Romance (2018)

My Perfect Romance (2018)
WEBRiP 1080p | MKV / AVC@4020 kb/s | 1920x1080 | 1h 31mn
Deutsch (dubbed): AC3, 640 kb/s (6 ch) | Subtitles: Deutsch | 2.98 GB
Genre: Romance

Der neu ernannte CEO von Robinson Tech, Wes Robinson, sucht nach neuen Ideen, um den Umsatz des Unternehmens zu steigern. Vivian Blair, ein Programmentwickler, teilt einen Datierungsalgorithmus. Wes sieht das Potenzial und die Chance, das Unternehmen zu verändern, und startet den Service. Wenn das Paar aufgefordert wird, es zu verwenden, zeigt dieser Algorithmus einige interessante Ergebnisse.


General
Unique ID : 236341093798082237541230026917375523023 (0xB1CDA3931C963C39B2B5E93F156638CF)
Complete name : F:\My.Perfect.Romance.2018.German.1080p.WEBRiP.x264.mkv
Format : Matroska
Format version : Version 4
File size : 2.98 GiB
Duration : 1 h 31 min
Overall bit rate mode : Variable
Overall bit rate : 4 644 kb/s
Encoded date : UTC 2019-10-22 15:52:52
Writing application : mkvmerge v7.8.0 ('River Man') 32bit built on Apr 3 2015 12:11:22
Writing library : libebml v1.3.1 + libmatroska v1.4.2

Video
ID : 1
Format : AVC
Format/Info : Advanced Video Codec
Format profile : Main@L4
Format settings : CABAC / 3 Ref Frames
Format settings, CABAC : Yes
Format settings, ReFrames : 3 frames
Codec ID : V_MPEG4/ISO/AVC
Duration : 1 h 31 min
Bit rate mode : Variable
Bit rate : 4 020 kb/s
Maximum bit rate : 6 030 kb/s
Width : 1 920 pixels
Height : 1 080 pixels
Display aspect ratio : 16:9
Frame rate mode : Constant
Frame rate : 23.976 (24000/1001) FPS
Color space : YUV
Chroma subsampling : 4:2:0
Bit depth : 8 bits
Scan type : Progressive
Bits/(Pixel*Frame) : 0.081
Stream size : 2.56 GiB (86%)
Writing library : x264 core 148 r2715 7e75228
Encoding settings : cabac=1 / ref=3 / deblock=1:0:0 / analyse=0x1:0x111 / me=umh / subme=10 / psy=1 / psy_rd=1.00:0.00 / mixed_ref=1 / me_range=24 / chroma_me=1 / trellis=2 / 8x8dct=0 / cqm=0 / deadzone=21,11 / fast_pskip=1 / chroma_qp_offset=-2 / threads=8 / lookahead_threads=1 / sliced_threads=0 / nr=0 / decimate=1 / interlaced=0 / bluray_compat=0 / stitchable=1 / constrained_intra=0 / bframes=2 / b_pyramid=0 / b_adapt=2 / b_bias=0 / direct=3 / weightb=1 / open_gop=0 / weightp=2 / keyint=48 / keyint_min=25 / scenecut=0 / intra_refresh=0 / rc_lookahead=48 / rc=2pass / mbtree=1 / bitrate=4020 / ratetol=1.0 / qcomp=0.50 / qpmin=6 / qpmax=51 / qpstep=4 / cplxblur=20.0 / qblur=0.5 / vbv_maxrate=6030 / vbv_bufsize=8040 / nal_hrd=vbr / filler=0 / ip_ratio=1.40 / aq=1:1.00
Default : Yes
Forced : No

Audio
ID : 2
Format : E-AC-3
Format/Info : Enhanced AC-3
Commercial name : Dolby Digital Plus
Codec ID : A_EAC3
Duration : 1 h 31 min
Bit rate mode : Constant
Bit rate : 640 kb/s
Channel(s) : 6 channels
Channel layout : L R C LFE Ls Rs
Sampling rate : 48.0 kHz
Frame rate : 31.250 FPS (1536 SPF)
Compression mode : Lossy
Stream size : 420 MiB (14%)
Title : eac3
Language : German
Service kind : Complete Main
Default : No
Forced : No

Text #1
ID : 3
Format : UTF-8
Codec ID : S_TEXT/UTF8
Codec ID/Info : UTF-8 Plain Text
Duration : 1 h 24 min
Bit rate : 0 b/s
Count of elements : 9
Stream size : 213 Bytes (0%)
Title : forced ger
Language : German
Default : Yes
Forced : Yes

Text #2
ID : 4
Format : UTF-8
Codec ID : S_TEXT/UTF8
Codec ID/Info : UTF-8 Plain Text
Duration : 1 h 28 min
Bit rate : 72 b/s
Count of elements : 1546
Stream size : 47.1 KiB (0%)
Title : full ger
Language : German
Default : No
Forced : No




Screenshots

My Perfect Romance (2018)

My Perfect Romance (2018)

My Perfect Romance (2018)