Please register here if you want to download anything!

If domain in your address bar is different from the list below
PLEASE LEAVE THAT SITE IMMEDIATELY
❗IT'S A DANGEROUS FAKE❗



Spicy Magazines for Men! ;-)

My Brilliant Career (1979) [Criterion Collection]

Posted By: RSU75
1080p (FullHD) / BDRip IMDb
My Brilliant Career (1979) [Criterion Collection]

My Brilliant Career (1979) [Criterion Collection, Spine #973]
BDRip 1080p | MKV | AVC, 1920x1040, ~ 4.1 Mbps | 1hr 40mn | 3.31 GB
English: AC3, 1 ch, 448 kbps; English (Commentary): AC3, 1 ch, 192 kbps
BDRip 720p | MKV | AVC, 1280x692, ~ 2.9 Mbps | 1hr 40mn | 2.33 GB
English: AC3, 1 ch, 256 kbps; English (Commentary): AC3, 1 ch, 192 kbps
Subtitles: English
Genre: Biography, Drama, Romance
IMDB Rating: 7.2/10 (3.234 votes)


Director: Gillian Armstrong
Writers: Eleanor Witcombe (screenplay), Miles Franklin (novel)
Stars: Judy Davis, Sam Neill, Wendy Hughes

Sybylla Melvyn is an independent young woman who soon after arriving to live with her Grandmother Bossier and aunt Helen announces that she will never marry and plans on having a career instead. She does attracts the interest of several suitors. The bumbling Englishman Frank Hawdon has only been in Australia for three months and proposes that she return home with him as his wife. She rejects him out of hand telling her grandmother that she does not love him. Then there's her neighbor, the handsome young farmer Harry Beecham, who she is attracted to and eventually accepts his proposal. Time passes however and in the end refuses to marry him while she seeks to become a writer.

Extras:
- Audio commentary from 2009 featuring Armstrong




General
Unique ID : 202913450622244896787842712114080333330 (0x98A7B5856E1D117E81E216925C193E12)
Complete name : F:\MyBrilliantCareer.1979.Cr.1p\MyBrilliantCareer.1979.Cr.1p.mkv
Format : Matroska
Format version : Version 4 / Version 2
File size : 3.31 GiB
Duration : 1 h 40 min
Overall bit rate : 4 723 kb/s
Movie name : Release RSU75
Encoded date : UTC 2019-08-13 03:33:24
Writing application : mkvmerge v6.6.0 ('The Edge Of The In Between') built on Dec 1 2013 17:55:00
Writing library : libebml v1.3.0 + libmatroska v1.4.1

Video
ID : 1
Format : AVC
Format/Info : Advanced Video Codec
Format profile : High@L4.1
Format settings : CABAC / 4 Ref Frames
Format settings, CABAC : Yes
Format settings, ReFrames : 4 frames
Codec ID : V_MPEG4/ISO/AVC
Duration : 1 h 40 min
Bit rate : 4 100 kb/s
Width : 1 920 pixels
Height : 1 040 pixels
Display aspect ratio : 1.85:1
Frame rate mode : Constant
Frame rate : 23.976 (23976/1000) FPS
Color space : YUV
Chroma subsampling : 4:2:0
Bit depth : 8 bits
Scan type : Progressive
Bits/(Pixel*Frame) : 0.086
Stream size : 2.79 GiB (84%)
Writing library : x264 core 148 r2643 5c65704
Encoding settings : cabac=1 / ref=4 / deblock=1:0:0 / analyse=0x3:0x113 / me=umh / subme=8 / psy=1 / psy_rd=1.00:0.00 / mixed_ref=1 / me_range=24 / chroma_me=1 / trellis=1 / 8x8dct=1 / cqm=0 / deadzone=21,11 / fast_pskip=1 / chroma_qp_offset=-2 / threads=3 / lookahead_threads=1 / sliced_threads=0 / nr=0 / decimate=1 / interlaced=0 / bluray_compat=0 / constrained_intra=0 / bframes=3 / b_pyramid=0 / b_adapt=2 / b_bias=0 / direct=3 / weightb=1 / open_gop=0 / weightp=2 / keyint=250 / keyint_min=25 / scenecut=40 / intra_refresh=0 / rc_lookahead=40 / rc=abr / mbtree=1 / bitrate=4100 / ratetol=1.0 / qcomp=0.60 / qpmin=10 / qpmax=51 / qpstep=4 / ip_ratio=1.41 / aq=1:1.00
Language : English
Default : Yes
Forced : No

Audio #1
ID : 2
Format : AC-3
Format/Info : Audio Coding 3
Commercial name : Dolby Digital
Codec ID : A_AC3
Duration : 1 h 40 min
Bit rate mode : Constant
Bit rate : 448 kb/s
Channel(s) : 1 channel
Channel layout : C
Sampling rate : 44.1 kHz
Frame rate : 28.711 FPS (1536 SPF)
Bit depth : 16 bits
Compression mode : Lossy
Stream size : 321 MiB (9%)
Language : English
Service kind : Complete Main
Default : Yes
Forced : No

Audio #2
ID : 3
Format : AC-3
Format/Info : Audio Coding 3
Commercial name : Dolby Digital
Codec ID : A_AC3
Duration : 1 h 40 min
Bit rate mode : Constant
Bit rate : 192 kb/s
Channel(s) : 1 channel
Channel layout : C
Sampling rate : 48.0 kHz
Frame rate : 31.250 FPS (1536 SPF)
Bit depth : 16 bits
Compression mode : Lossy
Stream size : 138 MiB (4%)
Title : Commentary
Language : English
Service kind : Complete Main
Default : No
Forced : No

Text
ID : 4
Format : PGS
Muxing mode : zlib
Codec ID : S_HDMV/PGS
Codec ID/Info : Picture based subtitle format used on BDs/HD-DVDs
Language : English
Default : Yes
Forced : No

Menu
00:00:00.000 : en:Chapter 01
00:10:49.231 : en:Chapter 02
00:21:34.793 : en:Chapter 03
00:32:08.927 : en:Chapter 04
00:38:09.954 : en:Chapter 05
00:43:24.268 : en:Chapter 06
00:53:05.724 : en:Chapter 07
01:02:50.933 : en:Chapter 08
01:08:33.526 : en:Chapter 09
01:13:01.627 : en:Chapter 10
01:17:25.932 : en:Chapter 11
01:29:07.633 : en:Chapter 12
01:34:53.145 : en:Chapter 13





General
Unique ID : 225298661016757177453157669108579609232 (0xA97EF19ACBD223928B45ABF4FE84AA90)
Complete name : F:\MyBrilliantCareer.1979.Cr.7p\MyBrilliantCareer.1979.Cr.7p.mkv
Format : Matroska
Format version : Version 4 / Version 2
File size : 2.33 GiB
Duration : 1 h 40 min
Overall bit rate : 3 332 kb/s
Movie name : Release RSU75
Encoded date : UTC 2019-08-13 03:25:45
Writing application : mkvmerge v6.6.0 ('The Edge Of The In Between') built on Dec 1 2013 17:55:00
Writing library : libebml v1.3.0 + libmatroska v1.4.1

Video
ID : 1
Format : AVC
Format/Info : Advanced Video Codec
Format profile : High@L4.1
Format settings : CABAC / 4 Ref Frames
Format settings, CABAC : Yes
Format settings, ReFrames : 4 frames
Codec ID : V_MPEG4/ISO/AVC
Duration : 1 h 40 min
Bit rate : 2 900 kb/s
Width : 1 280 pixels
Height : 692 pixels
Display aspect ratio : 1.85:1
Frame rate mode : Constant
Frame rate : 23.976 (23976/1000) FPS
Color space : YUV
Chroma subsampling : 4:2:0
Bit depth : 8 bits
Scan type : Progressive
Bits/(Pixel*Frame) : 0.137
Stream size : 1.97 GiB (85%)
Writing library : x264 core 148 r2643 5c65704
Encoding settings : cabac=1 / ref=4 / deblock=1:0:0 / analyse=0x3:0x113 / me=umh / subme=8 / psy=1 / psy_rd=1.00:0.00 / mixed_ref=1 / me_range=24 / chroma_me=1 / trellis=1 / 8x8dct=1 / cqm=0 / deadzone=21,11 / fast_pskip=1 / chroma_qp_offset=-2 / threads=3 / lookahead_threads=1 / sliced_threads=0 / nr=0 / decimate=1 / interlaced=0 / bluray_compat=0 / constrained_intra=0 / bframes=3 / b_pyramid=0 / b_adapt=2 / b_bias=0 / direct=3 / weightb=1 / open_gop=0 / weightp=2 / keyint=250 / keyint_min=25 / scenecut=40 / intra_refresh=0 / rc_lookahead=40 / rc=abr / mbtree=1 / bitrate=2900 / ratetol=1.0 / qcomp=0.60 / qpmin=10 / qpmax=51 / qpstep=4 / ip_ratio=1.41 / aq=1:1.00
Language : English
Default : Yes
Forced : No

Audio #1
ID : 2
Format : AC-3
Format/Info : Audio Coding 3
Commercial name : Dolby Digital
Codec ID : A_AC3
Duration : 1 h 40 min
Bit rate mode : Constant
Bit rate : 256 kb/s
Channel(s) : 1 channel
Channel layout : C
Sampling rate : 44.1 kHz
Frame rate : 28.711 FPS (1536 SPF)
Bit depth : 16 bits
Compression mode : Lossy
Stream size : 183 MiB (8%)
Language : English
Service kind : Complete Main
Default : Yes
Forced : No

Audio #2
ID : 3
Format : AC-3
Format/Info : Audio Coding 3
Commercial name : Dolby Digital
Codec ID : A_AC3
Duration : 1 h 40 min
Bit rate mode : Constant
Bit rate : 192 kb/s
Channel(s) : 1 channel
Channel layout : C
Sampling rate : 48.0 kHz
Frame rate : 31.250 FPS (1536 SPF)
Bit depth : 16 bits
Compression mode : Lossy
Stream size : 138 MiB (6%)
Title : Commentary
Language : English
Service kind : Complete Main
Default : No
Forced : No

Text
ID : 4
Format : PGS
Muxing mode : zlib
Codec ID : S_HDMV/PGS
Codec ID/Info : Picture based subtitle format used on BDs/HD-DVDs
Language : English
Default : Yes
Forced : No

Menu
00:00:00.000 : en:Chapter 01
00:10:49.231 : en:Chapter 02
00:21:34.793 : en:Chapter 03
00:32:08.927 : en:Chapter 04
00:38:09.954 : en:Chapter 05
00:43:24.268 : en:Chapter 06
00:53:05.724 : en:Chapter 07
01:02:50.933 : en:Chapter 08
01:08:33.526 : en:Chapter 09
01:13:01.627 : en:Chapter 10
01:17:25.932 : en:Chapter 11
01:29:07.633 : en:Chapter 12
01:34:53.145 : en:Chapter 13




Screenshots 1080p (click to enlarge to original size):

My Brilliant Career (1979) [Criterion Collection]

My Brilliant Career (1979) [Criterion Collection]

My Brilliant Career (1979) [Criterion Collection]


My Brilliant Career (1979) [Criterion Collection]



Screenshots 720p (click to enlarge to original size):

My Brilliant Career (1979) [Criterion Collection]




–––––––––––––––––––––––––––––––––––––––-
>>> "Criterion Collection" <<< OR >>> "BDRip" <<< OR >>> "Criterion Collection, BDRip" <<<
–––––––––––––––––––––––––––––––––––––––-
>>> Visit Blog RSU75 Here <<<
–––––––––––––––––––––––––––––––––––––––-