Tags
Language
Tags

My Gal Sal (1942)

Posted By: Without
1080p (FullHD) / BDRip IMDb
My Gal Sal (1942)

My Gal Sal (1942)
BDRip | MKV | 720x526 | AVC@1599 kb/s | English AAC@72.0 kb/s
Subs: English | 1 channel | 1 h 43 min | 1.20 GB
BDRip 720p | MKV | 992x720 | AVC@5472 kb/s | English FLAC@555 kb/s
Subs: English | 2 channels | 1 h 43 min | 4.37 GB
BDRip 1080p | MKV | 1488x1080 | AVC@10.0 Mb/s | English FLAC@555 kb/s
Subs: English | 2 channels | 1 h 43 min | 7.64 GB
Genre: Biography | Comedy | Musical

Chronicles the early life of gay nineties-era songwriter Paul Dresser as he outgrows his job as carnival entertainer and moves up into New York society, writing one hit song after another. Despite his egotistical behavior, he manages to woo and win Sally Elliott, one of the more popular songstresses of the day.

IMDB - Won 1 Oscar. Another 1 nomination.


General
My.Gal.Sal.1942.BDRip.x264-VoMiT.mkv
Format : Matroska
Format version : Version 4 / Version 2
File size : 1.21 GiB
Duration : 1 h 43 min
Overall bit rate : 1 672 kb/s
Encoded date : UTC 2018-10-06 15:16:42
Writing application : mkvmerge v26.0.0 ('In The Game') 64-bit
Writing library : libebml v1.3.6 + libmatroska v1.4.9

Video
ID : 1
Format : AVC
Format/Info : Advanced Video Codec
Format profile : High@L3.1
Format settings, CABAC : Yes
Format settings, ReFrames : 5 frames
Codec ID : V_MPEG4/ISO/AVC
Duration : 1 h 43 min
Bit rate : 1 599 kb/s
Width : 720 pixels
Height : 526 pixels
Display aspect ratio : 4:3
Frame rate mode : Constant
Frame rate : 23.976 (24000/1001) FPS
Color space : YUV
Chroma subsampling : 4:2:0
Bit depth : 8 bits
Scan type : Progressive
Bits/(Pixel*Frame) : 0.176
Stream size : 1.16 GiB (96%)
Writing library : x264 core 155 r2901 7d0ff22
Encoding settings : cabac=1 / ref=5 / deblock=1:-3:-3 / analyse=0x3:0x113 / me=umh / subme=8 / psy=1 / psy_rd=1.00:0.25 / mixed_ref=1 / me_range=24 / chroma_me=1 / trellis=2 / 8x8dct=1 / cqm=0 / deadzone=21,11 / fast_pskip=1 / chroma_qp_offset=-4 / threads=16 / lookahead_threads=2 / sliced_threads=0 / nr=0 / decimate=1 / interlaced=0 / bluray_compat=0 / constrained_intra=0 / bframes=3 / b_pyramid=2 / b_adapt=1 / b_bias=0 / direct=3 / weightb=1 / open_gop=0 / weightp=2 / keyint=240 / keyint_min=24 / scenecut=40 / intra_refresh=0 / rc_lookahead=50 / rc=crf / mbtree=1 / crf=21.0 / qcomp=0.60 / qpmin=0 / qpmax=69 / qpstep=4 / ip_ratio=1.40 / aq=1:0.75
Default : Yes
Forced : No
Color range : Limited
Matrix coefficients : BT.709

Audio
ID : 2
Format : AAC
Format/Info : Advanced Audio Codec
Format profile : LC
Codec ID : A_AAC
Duration : 1 h 43 min
Bit rate : 72.0 kb/s
Channel(s) : 1 channel
Channel positions : Front: C
Sampling rate : 48.0 kHz
Frame rate : 46.875 FPS (1024 spf)
Compression mode : Lossy
Delay relative to video : 9 ms
Stream size : 52.4 MiB (4%)
Language : English
Default : Yes
Forced : No

Menu
00:00:00.000 : en:00:00:00.000
00:05:17.400 : en:00:05:17.400
00:10:26.626 : en:00:10:26.626
00:12:44.180 : en:00:12:44.180
00:17:45.940 : en:00:17:45.940
00:22:11.455 : en:00:22:11.455
00:26:58.742 : en:00:26:58.742
00:30:09.141 : en:00:30:09.141
00:33:34.721 : en:00:33:34.721
00:40:11.492 : en:00:40:11.492
00:44:28.833 : en:00:44:28.833
00:48:52.346 : en:00:48:52.346
00:52:00.617 : en:00:52:00.617
00:57:21.271 : en:00:57:21.271
01:01:56.546 : en:01:01:56.546
01:05:29.926 : en:01:05:29.926
01:07:37.762 : en:01:07:37.762
01:11:24.280 : en:01:11:24.280
01:17:50.374 : en:01:17:50.374
01:23:10.611 : en:01:23:10.611
01:27:12.185 : en:01:27:12.185
01:31:58.138 : en:01:31:58.138
01:34:40.091 : en:01:34:40.091
01:40:17.803 : en:01:40:17.803


General
My.Gal.Sal.1942.720p.BluRay.x264-SADPANDA.mkv
Format : Matroska
Format version : Version 4 / Version 2
File size : 4.36 GiB
Duration : 1 h 43 min
Overall bit rate mode : Variable
Overall bit rate : 6 029 kb/s
Encoded date : UTC 2018-10-06 15:14:22
Writing application : mkvmerge v26.0.0 ('In The Game') 64-bit
Writing library : libebml v1.3.6 + libmatroska v1.4.9

Video
ID : 1
Format : AVC
Format/Info : Advanced Video Codec
Format profile : High@L4.1
Format settings, CABAC : Yes
Format settings, ReFrames : 5 frames
Codec ID : V_MPEG4/ISO/AVC
Duration : 1 h 43 min
Bit rate : 5 472 kb/s
Width : 992 pixels
Height : 720 pixels
Display aspect ratio : 1.378
Frame rate mode : Constant
Frame rate : 23.976 (24000/1001) FPS
Color space : YUV
Chroma subsampling : 4:2:0
Bit depth : 8 bits
Scan type : Progressive
Bits/(Pixel*Frame) : 0.320
Stream size : 3.96 GiB (91%)
Writing library : x264 core 155 r2901 7d0ff22
Encoding settings : cabac=1 / ref=5 / deblock=1:-3:-3 / analyse=0x3:0x113 / me=umh / subme=8 / psy=1 / psy_rd=1.00:0.25 / mixed_ref=1 / me_range=24 / chroma_me=1 / trellis=1 / 8x8dct=1 / cqm=0 / deadzone=21,11 / fast_pskip=1 / chroma_qp_offset=-4 / threads=22 / lookahead_threads=3 / sliced_threads=0 / nr=0 / decimate=1 / interlaced=0 / bluray_compat=0 / constrained_intra=0 / bframes=3 / b_pyramid=2 / b_adapt=1 / b_bias=0 / direct=3 / weightb=1 / open_gop=0 / weightp=2 / keyint=240 / keyint_min=24 / scenecut=40 / intra_refresh=0 / rc_lookahead=50 / rc=2pass / mbtree=1 / bitrate=5472 / ratetol=1.0 / qcomp=0.60 / qpmin=0 / qpmax=69 / qpstep=4 / cplxblur=20.0 / qblur=0.5 / ip_ratio=1.40 / aq=1:0.75
Default : Yes
Forced : No

Audio
ID : 2
Format : FLAC
Format/Info : Free Lossless Audio Codec
Codec ID : A_FLAC
Duration : 1 h 43 min
Bit rate mode : Variable
Bit rate : 555 kb/s
Channel(s) : 2 channels
Channel positions : Front: L R
Sampling rate : 48.0 kHz
Frame rate : 11.719 FPS (4096 spf)
Bit depth : 24 bits
Stream size : 411 MiB (9%)
Writing library : libFLAC 1.2.1 (UTC 2007-09-17)
Language : English
Default : Yes
Forced : No

Menu
00:00:00.000 : en:00:00:00.000
00:05:17.400 : en:00:05:17.400
00:10:26.626 : en:00:10:26.626
00:12:44.180 : en:00:12:44.180
00:17:45.940 : en:00:17:45.940
00:22:11.455 : en:00:22:11.455
00:26:58.742 : en:00:26:58.742
00:30:09.141 : en:00:30:09.141
00:33:34.721 : en:00:33:34.721
00:40:11.492 : en:00:40:11.492
00:44:28.833 : en:00:44:28.833
00:48:52.346 : en:00:48:52.346
00:52:00.617 : en:00:52:00.617
00:57:21.271 : en:00:57:21.271
01:01:56.546 : en:01:01:56.546
01:05:29.926 : en:01:05:29.926
01:07:37.762 : en:01:07:37.762
01:11:24.280 : en:01:11:24.280
01:17:50.374 : en:01:17:50.374
01:23:10.611 : en:01:23:10.611
01:27:12.185 : en:01:27:12.185
01:31:58.138 : en:01:31:58.138
01:34:40.091 : en:01:34:40.091
01:40:17.803 : en:01:40:17.803


General
My.Gal.Sal.1942.1080p.BluRay.x264-SADPANDA.mkv
Format : Matroska
Format version : Version 4 / Version 2
File size : 7.65 GiB
Duration : 1 h 43 min
Overall bit rate mode : Variable
Overall bit rate : 10.6 Mb/s
Encoded date : UTC 2018-10-06 15:14:33
Writing application : mkvmerge v26.0.0 ('In The Game') 64-bit
Writing library : libebml v1.3.6 + libmatroska v1.4.9

Video
ID : 1
Format : AVC
Format/Info : Advanced Video Codec
Format profile : High@L4.1
Format settings, CABAC : Yes
Format settings, ReFrames : 5 frames
Codec ID : V_MPEG4/ISO/AVC
Duration : 1 h 43 min
Bit rate : 10.0 Mb/s
Width : 1 488 pixels
Height : 1 080 pixels
Display aspect ratio : 1.378
Frame rate mode : Constant
Frame rate : 23.976 (24000/1001) FPS
Color space : YUV
Chroma subsampling : 4:2:0
Bit depth : 8 bits
Scan type : Progressive
Bits/(Pixel*Frame) : 0.260
Stream size : 7.24 GiB (95%)
Writing library : x264 core 155 r2901 7d0ff22
Encoding settings : cabac=1 / ref=5 / deblock=1:-3:-3 / analyse=0x3:0x113 / me=umh / subme=8 / psy=1 / psy_rd=1.00:0.25 / mixed_ref=1 / me_range=24 / chroma_me=1 / trellis=1 / 8x8dct=1 / cqm=0 / deadzone=21,11 / fast_pskip=1 / chroma_qp_offset=-4 / threads=34 / lookahead_threads=5 / sliced_threads=0 / nr=0 / decimate=1 / interlaced=0 / bluray_compat=0 / constrained_intra=0 / bframes=3 / b_pyramid=2 / b_adapt=1 / b_bias=0 / direct=3 / weightb=1 / open_gop=0 / weightp=2 / keyint=240 / keyint_min=24 / scenecut=40 / intra_refresh=0 / rc_lookahead=50 / rc=2pass / mbtree=1 / bitrate=10005 / ratetol=1.0 / qcomp=0.60 / qpmin=0 / qpmax=69 / qpstep=4 / cplxblur=20.0 / qblur=0.5 / ip_ratio=1.40 / aq=1:0.75
Default : Yes
Forced : No

Audio
ID : 2
Format : FLAC
Format/Info : Free Lossless Audio Codec
Codec ID : A_FLAC
Duration : 1 h 43 min
Bit rate mode : Variable
Bit rate : 555 kb/s
Channel(s) : 2 channels
Channel positions : Front: L R
Sampling rate : 48.0 kHz
Frame rate : 11.719 FPS (4096 spf)
Bit depth : 24 bits
Stream size : 411 MiB (5%)
Writing library : libFLAC 1.2.1 (UTC 2007-09-17)
Language : English
Default : Yes
Forced : No

Menu
00:00:00.000 : en:00:00:00.000
00:05:17.400 : en:00:05:17.400
00:10:26.626 : en:00:10:26.626
00:12:44.180 : en:00:12:44.180
00:17:45.940 : en:00:17:45.940
00:22:11.455 : en:00:22:11.455
00:26:58.742 : en:00:26:58.742
00:30:09.141 : en:00:30:09.141
00:33:34.721 : en:00:33:34.721
00:40:11.492 : en:00:40:11.492
00:44:28.833 : en:00:44:28.833
00:48:52.346 : en:00:48:52.346
00:52:00.617 : en:00:52:00.617
00:57:21.271 : en:00:57:21.271
01:01:56.546 : en:01:01:56.546
01:05:29.926 : en:01:05:29.926
01:07:37.762 : en:01:07:37.762
01:11:24.280 : en:01:11:24.280
01:17:50.374 : en:01:17:50.374
01:23:10.611 : en:01:23:10.611
01:27:12.185 : en:01:27:12.185
01:31:58.138 : en:01:31:58.138
01:34:40.091 : en:01:34:40.091
01:40:17.803 : en:01:40:17.803



BDRip Screenshots

My Gal Sal (1942)

My Gal Sal (1942)

My Gal Sal (1942)


BDRip 720p Screenshots

My Gal Sal (1942)

My Gal Sal (1942)

My Gal Sal (1942)


BDRip 1080p Screenshots

My Gal Sal (1942)

My Gal Sal (1942)

My Gal Sal (1942)


Come Visit My Blog (•‿•)