Tags
Language
Tags
July 2024
Su Mo Tu We Th Fr Sa
30 1 2 3 4 5 6
7 8 9 10 11 12 13
14 15 16 17 18 19 20
21 22 23 24 25 26 27
28 29 30 31 1 2 3

Sci Ch - Mysteries of the Abandoned Series 7: Part 4 the Worlds Greatest Icons (2020)

Posted By: notbanned
1080p (FullHD) / HDTV
Sci Ch - Mysteries of the Abandoned Series 7: Part 4 the Worlds Greatest Icons (2020)

Sci Ch - Mysteries of the Abandoned Series 7: Part 4 the Worlds Greatest Icons (2020)
HDTV | 1920x1080 | .MP4/AVC @ 4002 Kbps | 1 h 36 min | 2.77 GiB
Audio: English AAC 127 kbps, 2 channels | Subs: English
Genre: Documentary

Places that were once home to or inspired Hollywood films, world-famous musicians, a sports legion, and war heroes are now run-down, abandoned, and forbidden; experts investigate their mysteries and reveal the astonishing secrets behind ten of the world's most iconic abandoned places.

General
Complete name : Mysteries.of.the.Abandoned.Series.7.Part.4.The.Worlds.Greatest.Icons.1080p.mp4
Format : MPEG-4
Format profile : Base Media
Codec ID : isom (isom)
File size : 2.77 GiB
Duration : 1 h 36 min
Overall bit rate mode : Variable
Overall bit rate : 4 131 kb/s

Video
ID : 1
Format : AVC
Format/Info : Advanced Video Codec
Format profile : High@L5.2
Format settings, CABAC : Yes
Format settings, ReFrames : 4 frames
Codec ID : avc1
Codec ID/Info : Advanced Video Coding
Duration : 1 h 36 min
Bit rate : 4 002 kb/s
Maximum bit rate : 9 294 kb/s
Width : 1 920 pixels
Height : 1 080 pixels
Display aspect ratio : 16:9
Frame rate mode : Constant
Frame rate : 23.976 (24000/1001) FPS
Standard : Component
Color space : YUV
Chroma subsampling : 4:2:0
Bit depth : 8 bits
Scan type : Progressive
Bits/(Pixel*Frame) : 0.080
Stream size : 2.69 GiB (97%)
Tagged date : UTC 2021-01-09 15:17:27
Color range : Limited

Audio
ID : 2
Format : AAC
Format/Info : Advanced Audio Codec
Format profile : HE-AAC / LC
Codec ID : 40
Duration : 1 h 36 min
Bit rate mode : Variable
Bit rate : 127 kb/s
Maximum bit rate : 138 kb/s
Channel(s) : 2 channels
Channel positions : Front: L R
Sampling rate : 48.0 kHz / 24.0 kHz
Frame rate : 23.438 FPS (1024 spf)
Compression mode : Lossy
Stream size : 87.2 MiB (3%)
Language : English
Encoded date : UTC 2021-01-09 15:16:26
Tagged date : UTC 2021-01-09 15:17:27

Text
ID : 3
Format : Timed Text
Codec ID : tx3g
Duration : 1 h 35 min
Bit rate mode : Variable
Bit rate : 97 b/s
Stream size : 68.3 KiB (0%)
Forced : No
Encoded date : UTC 2021-01-09 15:17:27
Tagged date : UTC 2021-01-09 15:17:27


Screenshots:

Sci Ch - Mysteries of the Abandoned Series 7: Part 4 the Worlds Greatest Icons (2020)

Sci Ch - Mysteries of the Abandoned Series 7: Part 4 the Worlds Greatest Icons (2020)

Sci Ch - Mysteries of the Abandoned Series 7: Part 4 the Worlds Greatest Icons (2020)

Sci Ch - Mysteries of the Abandoned Series 7: Part 4 the Worlds Greatest Icons (2020)