Tags
Language
Tags

NASA - Tour of the Moon in 4K (2018)

Posted By: notbanned
NASA - Tour of the Moon in 4K (2018)

NASA - Tour of the Moon in 4K (2018)
HDTV | 3840x2160 | .MKV/AVC @ 16.0 Mb/s | 4 min 56 s | 570 MiB
Audio: English AAC 148 kbps, 2 channels | Subs: None
Genre: Documentary

Take a virtual tour of the Moon in all-new 4K resolution, thanks to data provided by NASA's Lunar Reconnaissance Orbiter spacecraft. As the visualization moves around the near side, far side, north and south poles, we highlight interesting features, sites, and information gathered on the lunar terrain. Music Provided By Killer Tracks: "Never Looking Back" - Frederick Wiedmann. "Flying over Turmoil" - Benjamin Krause & Scott Goodman.

General
Unique ID : 298097946488925736331198039290657503429 (0xE043937E96A5418B4B30249C7A81F8C5)
Complete name : NASA.Tour.of.the.Moon.2160p.mkv
Format : Matroska
Format version : Version 4 / Version 2
File size : 570 MiB
Duration : 4 min 56 s
Overall bit rate : 16.1 Mb/s

Video
ID : 1
Format : AVC
Format/Info : Advanced Video Codec
Format profile : High@L5.1
Format settings, CABAC : No
Format settings, ReFrames : 4 frames
Codec ID : V_MPEG4/ISO/AVC
Duration : 4 min 56 s
Bit rate : 16.0 Mb/s
Width : 3 840 pixels
Height : 2 160 pixels
Display aspect ratio : 16:9
Frame rate mode : Constant
Frame rate : 30.000 FPS
Color space : YUV
Chroma subsampling : 4:2:0
Bit depth : 8 bits
Scan type : Progressive
Bits/(Pixel*Frame) : 0.064
Stream size : 565 MiB (99%)
Encoding settings : cabac=0 / ref=3 / deblock=1:0:0 / analyse=0x3:0x113 / me=umh / subme=9 / psy=1 / psy_rd=1.00:0.00 / mixed_ref=1 / me_range=64 / chroma_me=1 / trellis=1 / 8x8dct=1 / cqm=0 / deadzone=21,11 / fast_pskip=0 / chroma_qp_offset=-2 / threads=3 / lookahead_threads=1 / sliced_threads=0 / nr=0 / decimate=1 / interlaced=0 / bluray_compat=0 / constrained_intra=0 / bframes=6 / b_pyramid=2 / b_adapt=2 / b_bias=0 / direct=1 / weightb=1 / open_gop=0 / weightp=2 / keyint=300 / keyint_min=30 / scenecut=40 / intra_refresh=0 / rc_lookahead=40 / rc=crf / mbtree=1 / crf=21.0 / qcomp=0.60 / qpmin=0 / qpmax=69 / qpstep=4 / ip_ratio=1.40 / aq=1:1.00
Language : English
Default : Yes
Forced : No
Color range : Limited
Color primaries : BT.709
Transfer characteristics : BT.709
Matrix coefficients : BT.709

Audio
ID : 2
Format : AAC
Format/Info : Advanced Audio Codec
Format profile : LC
Codec ID : A_AAC
Duration : 4 min 56 s
Bit rate : 148 kb/s
Channel(s) : 2 channels
Channel positions : Front: L R
Sampling rate : 48.0 kHz
Frame rate : 46.875 FPS (1024 spf)
Compression mode : Lossy
Delay relative to video : 9 ms
Stream size : 5.25 MiB (1%)
Language : English
Default : Yes
Forced : No


Screenshots:

NASA - Tour of the Moon in 4K (2018)

NASA - Tour of the Moon in 4K (2018)

NASA - Tour of the Moon in 4K (2018)

NASA - Tour of the Moon in 4K (2018)