Tags
Language
Tags

National Geographic - Alien Deep with Bob Ballard (2012)

Posted By: notbanned
720p (HD) / HDTV
National Geographic - Alien Deep with Bob Ballard (2012)

National Geographic - Alien Deep with Bob Ballard (2012)
HDTV | 1280x720 | .MKV/AVC @ 4976 Kbps | 5x~48min | 9.04 GiB
Audio: English AC3 384 kbps, 6 channels | Subs: English
Genre: Documentary

The Alien Deep. It's a place in the sea, thousands of feet beneath the surface, far from the first crack of light, where the planet's last and greatest secrets hide in the cold darkness of endless night. With cutting edge tools and amazing new camera technologies, National Geographic embarks on a first-ever voyage of deep ocean exploration – thousands of feet beneath the waves – to a hidden world of new ecosystems, new species, and new wonders never seen before.
This landmark 5-part series follows legendary ocean explorer and discoverer of the Titanic Dr. Robert Ballard as he travels to the deepest and most remote parts of the world's oceans in search of ancient relics and archaeological and natural wonders that have remained unseen and undisturbed for thousands of years. Dr. Ballard and a team of experts travel the world, seeking answers to questions at the root of earth and humanity. To find these answers, Dr. Ballard visits breathtaking sites from volcanoes submerged more than 3,000 feet beneath the Hawaiian islands, to shipwrecks on forgotten ancient Greek trade routes, to cracks in the ocean floor where red-hot magma pours into open water, with cameras capturing never-before-seen rock formations, lava vents and unusual species that call the ocean bottom home. Alien Deep is Dr. Robert Ballard's voyage of discovery, his vision of our ocean planet past, present and future.

Produced by National Geographic Television

Part 1: Fires of Creation
Dr. Ballard explores the history of volcanoes, and life on earth as he travels from the summit of Mauna Kea volcano in Hawaii to the crown of its submerged cousin Loihi, a voyage that spans over 16,000 feet from top to bottom. His trip from the lifeless world above the clouds, through the diverse ecosystems on the mountainside, and into the ocean deep runs the gamut of life on earth.

Part 2: Wrecks of the Abyss
Textbooks say that the Ancients did not have the guts to brave the open sea, out of sight of land and exposed to the elements, but not surprisingly, Dr. Ballard and his crew are out again to rewrite history. In Wrecks of the Abyss, captain and crew sail out into the deep water sea lanes of the Mediterranean in search of ancient shipwrecks that generations of scholars have written-off as impossible finds.

Part 3: It's Alive
Together, with peer scientists from Britain, Ireland, Iceland, and the U.S., Dr. Ballard searches for the origin of life in the planets most unforgiving environment: the darkness and chill of waters thousands of feet beneath the surface. Here, on the slopes of the Mid-Ocean ridges that divide the earths tectonic plates, are formations called chimneys, where molten lava superheats the ocean, mixing in the nutrients and hardening magma that allows life to thrive against the odds.

Part 4: Ocean's Fury
Dr. Ballard thinks that rogue waves and all waves are getting larger and more frequent on the seas. In Oceans Fury, Ballard travels the world in search of the forces behind the motion of the ocean, meeting with scientists and practitioners along the way. He talks to oceanographers, climatologists, river boat pilots, surfers, fishers, and more all to prove a single point: the ocean is growing more dangerous by the day.

Part 5: Inner vs. Outer Space
Dr. Ballard takes-on the long-held belief that space colonies will save the earth, as argued by on-air Apollo 11 crewmember Buzz Aldrin. To do so, Dr. Ballard travels to Hawaii to meet with experimental open-water aqua farmers; to California, where fast moving personal underwater vehicle are being developed for future ocean colonies; and Texas and Alaska where oil platforms are being converted into sea colonies and new imaging technology is unlocking resources hidden on the ocean bottom.

General
Unique ID : 227985852481883704564316479433129824023 (0xAB847A5F768CC47E8C4FAEA859BB8F17)
Complete name : NG.Alien.Dp.with.Bob.Ballard.1of5.Fires.of.Creation.720p.mkv
Format : Matroska
Format version : Version 4 / Version 2
File size : 1.81 GiB
Duration : 48 min 15 s
Overall bit rate : 5 365 kb/s

Video
ID : 1
Format : AVC
Format/Info : Advanced Video Codec
Format profile : High@L4.1
Format settings, CABAC : Yes
Format settings, ReFrames : 5 frames
Codec ID : V_MPEG4/ISO/AVC
Duration : 48 min 15 s
Bit rate : 4 976 kb/s
Width : 1 280 pixels
Height : 720 pixels
Display aspect ratio : 16:9
Frame rate mode : Constant
Frame rate : 29.970 (30000/1001) FPS
Color space : YUV
Chroma subsampling : 4:2:0
Bit depth : 8 bits
Scan type : Progressive
Bits/(Pixel*Frame) : 0.180
Stream size : 1.64 GiB (91%)
Writing library : x264 core 148 r2665 a01e339
Encoding settings : cabac=1 / ref=5 / deblock=1:0:0 / analyse=0x3:0x133 / me=umh / subme=8 / psy=1 / psy_rd=1.00:0.00 / mixed_ref=1 / me_range=16 / chroma_me=1 / trellis=1 / 8x8dct=1 / cqm=0 / deadzone=21,11 / fast_pskip=0 / chroma_qp_offset=-2 / threads=18 / lookahead_threads=3 / sliced_threads=0 / nr=0 / decimate=1 / interlaced=0 / bluray_compat=0 / constrained_intra=0 / bframes=3 / b_pyramid=2 / b_adapt=2 / b_bias=0 / direct=3 / weightb=1 / open_gop=0 / weightp=2 / keyint=250 / keyint_min=25 / scenecut=40 / intra_refresh=0 / rc_lookahead=50 / rc=2pass / mbtree=1 / bitrate=4976 / ratetol=1.0 / qcomp=0.60 / qpmin=0 / qpmax=69 / qpstep=4 / cplxblur=20.0 / qblur=0.5 / ip_ratio=1.40 / aq=1:1.00
Default : Yes
Forced : No

Audio
ID : 2
Format : AC-3
Format/Info : Audio Coding 3
Format settings, Endianness : Big
Codec ID : A_AC3
Duration : 48 min 15 s
Bit rate mode : Constant
Bit rate : 384 kb/s
Channel(s) : 6 channels
Channel positions : Front: L C R, Side: L R, LFE
Sampling rate : 48.0 kHz
Frame rate : 31.250 FPS (1536 spf)
Bit depth : 16 bits
Compression mode : Lossy
Stream size : 133 MiB (7%)
Language : English
Service kind : Complete Main
Default : Yes
Forced : No

Text
ID : 3
Format : VobSub
Muxing mode : zlib
Codec ID : S_VOBSUB
Codec ID/Info : Picture based subtitle format used on DVDs
Language : English
Default : Yes
Forced : No


Screenshots:

National Geographic - Alien Deep with Bob Ballard (2012)

National Geographic - Alien Deep with Bob Ballard (2012)

National Geographic - Alien Deep with Bob Ballard (2012)

National Geographic - Alien Deep with Bob Ballard (2012)