NHK Asia Insight: - An End to Nuclear Power in Taiwan (2018)

Posted By: notbanned
720p (HD) / HDTV
NHK Asia Insight: - An End to Nuclear Power in Taiwan (2018)

NHK Asia Insight: - An End to Nuclear Power in Taiwan (2018)
HDTV | 1280x720 | .MP4/AVC @ 2800 Kbps | 27 min 59 s | 608 MiB
Audio: English AAC 160 kbps, 2 channels | Subs: None
Genre: Documentary

In January 2017, Taiwan passed a measure stating that all of its nuclear power plants will be shut down by 2025. The change comes after Japan's Fukushima nuclear disaster and 30 years of anti-nuclear protests by residents. The key to phasing out nuclear power lies in renewable energy such as wind power and solar energy. Because of this, the government is conducting numerous tests. Business leaders, however, desire stable pricing and a secure power supply, so are pushing for continued operations. Explore the situation in Taiwan after the decision to phase out all nuclear power.

General
Complete name : NHK.Asia.Insight.An.End.to.Nuclear.Power.in.Taiwan.720p.mp4
Format : MPEG-4
Format profile : Base Media / Version 2
Codec ID : mp42 (mp42/isom/avc1)
File size : 608 MiB
Duration : 27 min 59 s
Overall bit rate mode : Variable
Overall bit rate : 3 036 kb/s

Video
ID : 1
Format : AVC
Format/Info : Advanced Video Codec
Format profile : High@L4.1
Format settings, CABAC : Yes
Format settings, ReFrames : 4 frames
Codec ID : avc1
Codec ID/Info : Advanced Video Coding
Duration : 27 min 59 s
Bit rate : 2 800 kb/s
Width : 1 280 pixels
Height : 720 pixels
Display aspect ratio : 16:9
Frame rate mode : Constant
Frame rate : 30.000 FPS
Color space : YUV
Chroma subsampling : 4:2:0
Bit depth : 8 bits
Scan type : Progressive
Bits/(Pixel*Frame) : 0.101
Stream size : 575 MiB (95%)
Encoding settings : cabac=1 / ref=1 / deblock=1:0:0 / analyse=0x3:0x113 / me=hex / subme=2 / psy=1 / psy_rd=1.00:0.00 / mixed_ref=0 / me_range=16 / chroma_me=1 / trellis=0 / 8x8dct=1 / cqm=0 / deadzone=21,11 / fast_pskip=1 / chroma_qp_offset=0 / threads=6 / lookahead_threads=2 / sliced_threads=0 / nr=0 / decimate=1 / interlaced=0 / bluray_compat=0 / constrained_intra=0 / bframes=3 / b_pyramid=2 / b_adapt=1 / b_bias=0 / direct=1 / weightb=1 / open_gop=0 / weightp=1 / keyint=300 / keyint_min=30 / scenecut=40 / intra_refresh=0 / rc_lookahead=10 / rc=abr / mbtree=1 / bitrate=2800 / ratetol=1.0 / qcomp=0.60 / qpmin=0 / qpmax=69 / qpstep=4 / vbv_maxrate=62500 / vbv_bufsize=78125 / nal_hrd=none / ip_ratio=1.40 / aq=1:1.00
Encoded date : UTC 2018-05-04 15:09:05
Tagged date : UTC 2018-05-04 15:36:06
Color range : Limited
Color primaries : BT.709
Transfer characteristics : BT.709
Matrix coefficients : BT.709

Audio
ID : 2
Format : AAC
Format/Info : Advanced Audio Codec
Format profile : LC
Codec ID : 40
Duration : 27 min 58 s
Bit rate mode : Variable
Bit rate : 160 kb/s
Maximum bit rate : 297 kb/s
Channel(s) : 2 channels
Channel positions : Front: L R
Sampling rate : 44.1 kHz
Frame rate : 43.066 FPS (1024 spf)
Compression mode : Lossy
Stream size : 32.0 MiB (5%)
Title : Stereo
Encoded date : UTC 2018-05-04 15:09:05
Tagged date : UTC 2018-05-04 15:36:06


Screenshots:

NHK Asia Insight: - An End to Nuclear Power in Taiwan (2018)

NHK Asia Insight: - An End to Nuclear Power in Taiwan (2018)

NHK Asia Insight: - An End to Nuclear Power in Taiwan (2018)

NHK Asia Insight: - An End to Nuclear Power in Taiwan (2018)