Tags
Language
Tags
February 2023
Su Mo Tu We Th Fr Sa
29 30 31 1 2 3 4
5 6 7 8 9 10 11
12 13 14 15 16 17 18
19 20 21 22 23 24 25
26 27 28 1 2 3 4

NHK Great Nature - Amazing Works of Light in the Sky: Mongolia (2014)

Posted By: notbanned
NHK Great Nature - Amazing Works of Light in the Sky: Mongolia (2014)

NHK Great Nature - Amazing Works of Light in the Sky: Mongolia (2014)
HDTV | 1280x720 | .MKV/AVC @ 2750 Kbps | 28min 59s | 596 MiB
Audio: English AAC 123 kbps, 2 channels | Subs: None
Genre: Documentary

Amazing Works of Light in the Sky: Mongolia. We present the amazing phenomena created by ice and light in the super-cold air of the winter plains, including double and triple suns and light pillars.


General
Unique ID : 182561725677837476049235943934775271322 (0x89581C02D4B367AA9C70D6C15BD41F9A)
Complete name : NHK.Great.Nature.2014.Amazing.Works.of.Light.in.the.Sky.Mongolia.720p.mkv
Format : Matroska
Format version : Version 4 / Version 2
File size : 596 MiB
Duration : 28 min 59 s
Overall bit rate : 2 875 kb/s

Video
ID : 1
Format : AVC
Format/Info : Advanced Video Codec
Format profile : High@L3.1
Format settings, CABAC : Yes
Format settings, ReFrames : 4 frames
Codec ID : V_MPEG4/ISO/AVC
Duration : 28 min 59 s
Bit rate : 2 750 kb/s
Width : 1 280 pixels
Height : 720 pixels
Display aspect ratio : 16:9
Frame rate mode : Constant
Frame rate : 25.000 FPS
Color space : YUV
Chroma subsampling : 4:2:0
Bit depth : 8 bits
Scan type : Progressive
Bits/(Pixel*Frame) : 0.119
Stream size : 570 MiB (96%)
Encoding settings : cabac=1 / ref=4 / deblock=1:0:0 / analyse=0x3:0x113 / me=umh / subme=9 / psy=1 / psy_rd=1.00:0.00 / mixed_ref=1 / me_range=24 / chroma_me=1 / trellis=1 / 8x8dct=1 / cqm=0 / deadzone=21,11 / fast_pskip=0 / chroma_qp_offset=-2 / threads=3 / lookahead_threads=1 / sliced_threads=0 / nr=0 / decimate=1 / interlaced=0 / bluray_compat=0 / constrained_intra=0 / bframes=5 / b_pyramid=2 / b_adapt=2 / b_bias=0 / direct=1 / weightb=1 / open_gop=0 / weightp=2 / keyint=250 / keyint_min=25 / scenecut=40 / intra_refresh=0 / rc_lookahead=40 / rc=crf / mbtree=1 / crf=20.0 / qcomp=0.60 / qpmin=0 / qpmax=69 / qpstep=4 / ip_ratio=1.40 / aq=1:1.00
Language : English
Default : Yes
Forced : No

Audio
ID : 2
Format : AAC
Format/Info : Advanced Audio Codec
Format profile : LC
Codec ID : A_AAC
Duration : 28 min 59 s
Bit rate : 123 kb/s
Channel(s) : 2 channels
Channel positions : Front: L R
Sampling rate : 48.0 kHz
Frame rate : 46.875 FPS (1024 spf)
Compression mode : Lossy
Delay relative to video : 9 ms
Stream size : 25.5 MiB (4%)
Language : English
Default : Yes
Forced : No


Screenshots:

NHK Great Nature - Amazing Works of Light in the Sky: Mongolia (2014)

NHK Great Nature - Amazing Works of Light in the Sky: Mongolia (2014)

NHK Great Nature - Amazing Works of Light in the Sky: Mongolia (2014)

NHK Great Nature - Amazing Works of Light in the Sky: Mongolia (2014)