Tags
Language
Tags

NHK - The Science of Marital Misunderstanding (2017)

Posted By: notbanned
720p (HD) / HDTV
NHK - The Science of Marital Misunderstanding (2017)

NHK - The Science of Marital Misunderstanding (2017)
HDTV | 1280x720 | .MKV/AVC @ 1463 Kbps | 48 min 58 s | 536 MiB
Audio: English AAC 64 kbps, 2 channels | Subs: None
Genre: Documentary

In Japan, one couple gets divorced every 2 minutes. Often, the wife initiates the split. Many women say their partners don't understand their feelings, while many husbands seem unaware of the daily stress this can create. The latest research suggests that common marital misunderstandings are rooted in differences between the male and female brain. The problems couples experience today are the result of millions of years of evolution. This program uses findings from neuroscience to explore the issue, and suggests ways for couples to strengthen their bonds.

General
Unique ID : 211295136361889689215471732695391420791 (0x9EF5F688A0B76CB0FC7EF3101C5A4177)
Complete name : NHK.The.Science.of.Marital.Misunderstanding.720p.mkv
Format : Matroska
Format version : Version 4 / Version 2
File size : 536 MiB
Duration : 48 min 58 s
Overall bit rate : 1 529 kb/s

Video
ID : 1
Format : HEVC
Format/Info : High Efficiency Video Coding
Format profile : Main@L3.1@Main
Codec ID : V_MPEGH/ISO/HEVC
Duration : 48 min 58 s
Bit rate : 1 463 kb/s
Width : 1 280 pixels
Height : 720 pixels
Display aspect ratio : 16:9
Frame rate mode : Constant
Frame rate : 25.000 FPS
Color space : YUV
Chroma subsampling : 4:2:0
Bit depth : 8 bits
Bits/(Pixel*Frame) : 0.063
Stream size : 512 MiB (96%)
Encoding settings : cpuid=1310975 / frame-threads=1 / numa-pools=2 / wpp / no-pmode / no-pme / no-psnr / no-ssim / log-level=2 / input-csp=1 / input-res=1280x720 / interlace=0 / total-frames=73470 / level-idc=0 / high-tier=1 / uhd-bd=0 / ref=3 / no-allow-non-conformance / no-repeat-headers / annexb / no-aud / no-hrd / info / hash=0 / no-temporal-layers / no-open-gop / min-keyint=25 / keyint=250 / gop-lookahead=0 / bframes=5 / b-adapt=2 / b-pyramid / bframe-bias=0 / rc-lookahead=20 / lookahead-slices=4 / scenecut=40 / radl=0 / no-intra-refresh / ctu=64 / min-cu-size=8 / no-rect / no-amp / max-tu-size=32 / tu-inter-depth=1 / tu-intra-depth=1 / limit-tu=0 / rdoq-level=0 / dynamic-rd=0.00 / no-ssim-rd / signhide / no-tskip / nr-intra=0 / nr-inter=0 / no-constrained-intra / strong-intra-smoothing / max-merge=2 / limit-refs=3 / no-limit-modes / me=1 / subme=2 / merange=57 / temporal-mvp / weightp / weightb / no-analyze-src-pics / deblock=0:0 / sao / no-sao-non-deblock / rd=3 / no-early-skip / rskip / no-fast-intra / no-tskip-fast / no-cu-lossless / no-b-intra / no-splitrd-skip / rdpenalty=0 / psy-rd=2.00 / psy-rdoq=0.00 / no-rd-refine / no-lossless / cbqpoffs=0 / crqpoffs=0 / rc=crf / crf=20.0 / qcomp=0.60 / qpstep=4 / stats-write=0 / stats-read=0 / ipratio=1.40 / pbratio=1.30 / aq-mode=1 / aq-strength=1.00 / cutree / zone-count=0 / no-strict-cbr / qg-size=32 / no-rc-grain / qpmax=69 / qpmin=0 / no-const-vbv / sar=1 / overscan=0 / videoformat=5 / range=0 / colorprim=2 / transfer=2 / colormatrix=2 / chromaloc=0 / display-window=0 / max-cll=0,0 / min-luma=0 / max-luma=255 / log2-max-poc-lsb=8 / vui-timing-info / vui-hrd-info / slices=1 / no-opt-qp-pps / no-opt-ref-list-length-pps / no-multi-pass-opt-rps / scenecut-bias=0.05 / no-opt-cu-delta-qp / no-aq-motion / no-hdr / no-hdr-opt / no-dhdr10-opt / analysis-save=(null) / analysis-load=(null) / analysis-reuse-level=5 / scale-factor=0 / refine-intra=0 / refine-inter=0 / refine-mv=0 / no-limit-sao / ctu-info=0 / no-lowpass-dct / refine-mv-type=0 / copy-pic=1
Language : English
Default : Yes
Forced : No

Audio
ID : 2
Format : AAC
Format/Info : Advanced Audio Codec
Format profile : HE-AAC / LC
Codec ID : A_AAC
Duration : 48 min 58 s
Bit rate : 64.0 kb/s
Channel(s) : 2 channels
Channel positions : Front: L R
Sampling rate : 48.0 kHz / 24.0 kHz
Frame rate : 23.438 FPS (1024 spf)
Compression mode : Lossy
Delay relative to video : 43 ms
Stream size : 22.4 MiB (4%)
Language : English
Default : Yes
Forced : No


Screenshots:

NHK - The Science of Marital Misunderstanding (2017)

NHK - The Science of Marital Misunderstanding (2017)

NHK - The Science of Marital Misunderstanding (2017)

NHK - The Science of Marital Misunderstanding (2017)