Tags
Language
Tags

PBS - NOVA: Secrets In Our DNA (2021)

Posted By: notbanned
1080p (FullHD) / WEBRip
PBS - NOVA: Secrets In Our DNA (2021)

PBS - NOVA: Secrets In Our DNA (2021)
WEBRip | 1920x1080 | .MKV/AVC @ 6500 Kbps | 53 min 26 s | 2.50 GiB
Audio: English AAC 157 kbps, 2 channels | Subs: English
Genre: Documentary

Some 30 million Americans have sent their DNA to be analyzed by companies like 23andMe and AncestryDNA, hoping to obtain clues to family origins and forecasts of their future health. Some users have found family members and discovered lurking genetic risks. But what happens once the sample is in the hands of testing companies?

What are they looking at and how accurate are their results? NOVA explores the power of this information and the unintended consequences that can arise from sharing our data with these rapidly growing online databases. DNA results that report on health risks can be misleading, and the discovery of intimate family secrets can tear relationships apart. Meanwhile, law enforcement is increasingly turning to the DNA-sharing website GEDmatch as an extraordinarily powerful tool for cracking cold cases, as demonstrated by the 2018 arrest of California’s notorious Golden State Killer after 42 years at large. What is the peril and promise of consumer DNA testing?

General
Unique ID : 68686797546283922078821079915798296361 (0x33AC9894A020EED4A6C7892321157729)
Complete name : NOVA.Scts.in.our.DNA.1080p.mkv
Format : Matroska
Format version : Version 4 / Version 2
File size : 2.50 GiB
Duration : 53 min 26 s
Overall bit rate : 6 708 kb/s

Video
ID : 1
Format : AVC
Format/Info : Advanced Video Codec
Format profile : High@L4
Format settings, CABAC : Yes
Format settings, ReFrames : 4 frames
Format settings, GOP : M=4, N=60
Codec ID : V_MPEG4/ISO/AVC
Duration : 53 min 26 s
Bit rate mode : Constant
Bit rate : 6 500 kb/s
Width : 1 920 pixels
Height : 1 080 pixels
Display aspect ratio : 16:9
Frame rate mode : Constant
Frame rate : 29.970 (30000/1001) FPS
Color space : YUV
Chroma subsampling : 4:2:0
Bit depth : 8 bits
Scan type : Progressive
Bits/(Pixel*Frame) : 0.105
Stream size : 2.44 GiB (98%)
Language : English
Default : Yes
Forced : No
Color range : Limited
Color primaries : BT.709
Transfer characteristics : BT.709
Matrix coefficients : BT.709

Audio
ID : 2
Format : AAC
Format/Info : Advanced Audio Codec
Format profile : LC
Codec ID : A_AAC
Duration : 53 min 26 s
Bit rate : 157 kb/s
Channel(s) : 2 channels
Channel positions : Front: L R
Sampling rate : 48.0 kHz
Frame rate : 46.875 FPS (1024 spf)
Compression mode : Lossy
Delay relative to video : -33 ms
Stream size : 60.1 MiB (2%)
Language : English
Default : Yes
Forced : No

Text
ID : 3
Format : UTF-8
Codec ID : S_TEXT/UTF8
Codec ID/Info : UTF-8 Plain Text
Duration : 53 min 9 s
Bit rate : 106 b/s
Count of elements : 1000
Stream size : 41.6 KiB (0%)
Language : English
Default : No
Forced : No


Screenshots:

PBS - NOVA: Secrets In Our DNA (2021)

PBS - NOVA: Secrets In Our DNA (2021)

PBS - NOVA: Secrets In Our DNA (2021)

PBS - NOVA: Secrets In Our DNA (2021)