Tags
Language
Tags
March 2023
Su Mo Tu We Th Fr Sa
26 27 28 1 2 3 4
5 6 7 8 9 10 11
12 13 14 15 16 17 18
19 20 21 22 23 24 25
26 27 28 29 30 31 1

Napoleon - In the Name of Art (2021)

Posted By: notbanned
1080p (FullHD) / HDTV IMDb
Napoleon - In the Name of Art (2021)

Napoleon - In the Name of Art (2021)
HDTV | 1920x1080 | .MKV/AVC @ 3747 Kbps | 1 h 40 min | 2.82 GiB
Audio: English MP2 256 kbps, 2 channels | Subs: English
Genre: Documentary

To mark the 200th anniversary of Napoleon's death, this documentary explores the complex relationship between Napoleon, culture, and art. While suffering the anguish of exile on the remote island of St. Helena, before his death, memoirs suggested that Napoleon thought posterity would admire him not only for his battles, but for bringing culture and beauty to the people, for creating the state school system and the modern idea of a universal museum, owned by everyone, open to the common people. It's from this aspect of his life that Napoleon: In The Name Of Art was born - a documentary featuring the Oscar-winner Jeremy Irons as a very special guide

General
Unique ID : 37968788801186108436296463429376135037 (0x1C9085D1A95DA998FC866CC3F8ABCF7D)
Complete name : Napoleon.In.The.Name.Of.Art.2021.1080p.mkv
Format : Matroska
Format version : Version 4 / Version 2
File size : 2.82 GiB
Duration : 1 h 40 min
Overall bit rate : 4 005 kb/s

Video
ID : 1
Format : AVC
Format/Info : Advanced Video Codec
Format profile : High@L4.1
Format settings, CABAC : Yes
Format settings, ReFrames : 4 frames
Codec ID : V_MPEG4/ISO/AVC
Duration : 1 h 40 min
Bit rate : 3 747 kb/s
Width : 1 920 pixels
Height : 1 080 pixels
Display aspect ratio : 16:9
Frame rate mode : Constant
Frame rate : 23.976 (23976/1000) FPS
Color space : YUV
Chroma subsampling : 4:2:0
Bit depth : 8 bits
Scan type : Progressive
Bits/(Pixel*Frame) : 0.075
Stream size : 2.63 GiB (94%)
Writing library : x264 core 164 r3095 baee400
Encoding settings : cabac=1 / ref=4 / deblock=1:-2:-2 / analyse=0x3:0x113 / me=hex / subme=8 / psy=1 / psy_rd=1.00:0.00 / mixed_ref=1 / me_range=16 / chroma_me=1 / trellis=2 / 8x8dct=1 / cqm=0 / deadzone=21,11 / fast_pskip=1 / chroma_qp_offset=-2 / threads=12 / lookahead_threads=2 / sliced_threads=0 / nr=0 / decimate=1 / interlaced=0 / bluray_compat=0 / constrained_intra=0 / bframes=3 / b_pyramid=2 / b_adapt=1 / b_bias=0 / direct=3 / weightb=1 / open_gop=0 / weightp=2 / keyint=250 / keyint_min=23 / scenecut=40 / intra_refresh=0 / rc_lookahead=50 / rc=crf / mbtree=1 / crf=21.0 / qcomp=0.60 / qpmin=0 / qpmax=69 / qpstep=4 / ip_ratio=1.40 / aq=1:1.00
Default : Yes
Forced : No

Audio
ID : 2
Format : MPEG Audio
Format version : Version 1
Format profile : Layer 2
Codec ID : A_MPEG/L2
Codec ID/Hint : MP2
Duration : 1 h 40 min
Bit rate mode : Constant
Bit rate : 256 kb/s
Channel(s) : 2 channels
Sampling rate : 48.0 kHz
Frame rate : 41.667 FPS (1152 spf)
Compression mode : Lossy
Stream size : 184 MiB (6%)
Language : English
Default : Yes
Forced : No

Text
ID : 3
Format : UTF-8
Codec ID : S_TEXT/UTF8
Codec ID/Info : UTF-8 Plain Text
Duration : 1 h 37 min
Bit rate : 53 b/s
Count of elements : 929
Stream size : 38.1 KiB (0%)
Language : English
Default : No
Forced : No


Screenshots:

Napoleon - In the Name of Art (2021)

Napoleon - In the Name of Art (2021)

Napoleon - In the Name of Art (2021)

Napoleon - In the Name of Art (2021)