Tags
Language
Tags

National Geographic - The Koran (2008)

Posted By: notbanned
720p (HD) / HDTV
National Geographic - The Koran (2008)

National Geographic - The Koran (2008)
HDTV | 1280x720 | .MKV/AVC @ 2943 Kbps | 1 h 33 min | 2.19 GiB
Audio: English AC3 384 kbps, 6 channels | Subs: None
Genre: Documentary

A Window into the Volatile Paradox of Islam's Most Sacred Text. The Koran is one of the most ideologically influential texts in the world, with over a billion Muslims following its precepts. Yet within this singular religious community there are profound differences in attitudes about peace, violence, punishment, forgiveness and the status of women, among others.
In this eye-opening film, director Antony Thomas goes deep into the heart of the Muslim world to explore the history and current state of Islam. He attempts to ascertain what Islam's Holy Book actually says about such subjects as equality, punishment, peace, other faiths and suicide bombing. As with most holy books, the paradoxes contained within lead to an extremely wide range of interpretations, and as such can be "used for ultimate grace or as an alibi for appalling acts and beliefs." Thomas investigates how Islam's teachings in the Koran are very tactfully being employed by nations and powerful leaders alike to further their own political, cultural, and social norms. He explores the branches within the religion—including the Wahabi, Sunni and Shia Islam, as well as Sufism—and merges the similarities and differences within these divisions through the voices of the people themselves. From an ordinary Egyptian woman to several notable scholars, The Koran unveils the beliefs of ordinary Muslims who firmly believe in co-existence and tolerance of all. He also delves into the personal lives of his subjects, who range from ayatollahs and grand imams to simple farmers and women living in veiled seclusion; their relationship with this holy Book reveals a complex, beautiful and often contradictory guide for humanity. Perhaps reassuringly, despite the intolerance and prejudice that permeates most Muslim societies, Thomas finds the majority of Muslims simply wish to be left alone to pray, meaning no harm to anyone, and are devastated at the rise of the fundamentalists, fearing for the future of their faith, "increasingly requisitioned and twisted by joyless religious dictators."

General
Unique ID : 185457182845827659659851086826980775623 (0x8B85C1123B62946C8DAA386E1A8016C7)
Complete name : National.Geographic.The.Koran.720p.mkv
Format : Matroska
Format version : Version 1
File size : 2.19 GiB
Duration : 1 h 33 min
Overall bit rate : 3 330 kb/s

Video
ID : 1
Format : AVC
Format/Info : Advanced Video Codec
Format profile : High@L5.1
Format settings, CABAC : Yes
Format settings, ReFrames : 5 frames
Codec ID : V_MPEG4/ISO/AVC
Duration : 1 h 33 min
Bit rate : 2 943 kb/s
Width : 1 280 pixels
Height : 720 pixels
Display aspect ratio : 16:9
Frame rate mode : Constant
Frame rate : 25.000 FPS
Color space : YUV
Chroma subsampling : 4:2:0
Bit depth : 8 bits
Scan type : Progressive
Bits/(Pixel*Frame) : 0.128
Stream size : 1.89 GiB (86%)
Writing library : x264 core 60 r900 a9af942
Encoding settings : cabac=1 / ref=5 / deblock=1:0:0 / analyse=0x3:0x133 / me=umh / subme=6 / brdo=1 / mixed_ref=1 / me_range=8 / chroma_me=1 / trellis=1 / 8x8dct=1 / cqm=0 / deadzone=21,11 / chroma_qp_offset=0 / threads=3 / nr=0 / decimate=1 / mbaff=0 / bframes=3 / b_pyramid=1 / b_adapt=1 / b_bias=0 / direct=3 / wpredb=1 / bime=1 / keyint=250 / keyint_min=50 / scenecut=40(pre) / rc=2pass / bitrate=2943 / ratetol=1.0 / rceq='blurCplx^(1-qComp)' / qcomp=1.00 / qpmin=10 / qpmax=51 / qpstep=4 / cplxblur=20.0 / qblur=0.5 / ip_ratio=1.40 / pb_ratio=1.30 / aq=2:1.00
Default : Yes
Forced : No

Audio
ID : 2
Format : AC-3
Format/Info : Audio Coding 3
Format settings, Endianness : Big
Codec ID : A_AC3
Duration : 1 h 33 min
Bit rate mode : Constant
Bit rate : 384 kb/s
Channel(s) : 6 channels
Channel positions : Front: L C R, Side: L R, LFE
Sampling rate : 48.0 kHz
Frame rate : 31.250 FPS (1536 spf)
Bit depth : 16 bits
Compression mode : Lossy
Stream size : 258 MiB (12%)
Language : Danish
Service kind : Complete Main
Default : Yes
Forced : No


Screenshots:

National Geographic - The Koran (2008)

National Geographic - The Koran (2008)

National Geographic - The Koran (2008)

National Geographic - The Koran (2008)