National Geographic - Lords of War (2013)

Posted By: Polik88
National Geographic - Lords of War (2013)

National Geographic - Lords of War (2013)
DVDRip | English | AVI/XVID 29.970 fps 1226 Kbps | 640x360 | MP3 128 Kbps 48.0 khz | 3x22mn | 3x220 MB
Genre: Documentary

"Lords of War" brings you inside the intriguing world of historical weaponry as Sean Rich and his team of weapons experts travel across the country in search of the best in antique weapons and militaria. Journey through history as the guys assess, test, and auction the bounties of war.
General
Complete name : Lords.of.War.1x01.Da.Vincis.Killer.Pistol.avi
Format : AVI
Format/Info : Audio Video Interleave
File size : 220 MiB
Duration : 22mn 29s
Overall bit rate mode : Variable
Overall bit rate : 1 368 Kbps

Video
ID : 0
Format : MPEG-4 Visual
Format profile : Advanced Simple@L5
Format settings, BVOP : 2
Format settings, QPel : No
Format settings, GMC : No warppoints
Format settings, Matrix : Default (H.263)
Codec ID : XVID
Codec ID/Hint : XviD
Duration : 22mn 29s
Bit rate : 1 226 Kbps
Width : 640 pixels
Height : 360 pixels
Display aspect ratio : 16:9
Frame rate : 29.970 fps
Color space : YUV
Chroma subsampling : 4:2:0
Bit depth : 8 bits
Scan type : Progressive
Compression mode : Lossy
Bits/(Pixel*Frame) : 0.178
Stream size : 197 MiB (90%)
Writing library : XviD 64

Audio
ID : 1
Format : MPEG Audio
Format version : Version 1
Format profile : Layer 3
Mode : Joint stereo
Codec ID : 55
Codec ID/Hint : MP3
Duration : 22mn 29s
Bit rate mode : Variable
Bit rate : 128 Kbps
Channel(s) : 2 channels
Sampling rate : 48.0 KHz
Compression mode : Lossy
Stream size : 20.6 MiB (9%)
Alignment : Aligned on interleaves
Interleave, duration : 24 ms (0.72 video frame)
Interleave, preload duration : 178 ms

Screenshots

National Geographic - Lords of War (2013)

National Geographic - Lords of War (2013)

National Geographic - Lords of War (2013)

no mirrors please, Follow The Rules
Visit Polik88 Blog Here
no password