National Geographic - Nazi Temple of Doom (2012)

Posted By: Polik88
National Geographic - Nazi Temple of Doom (2012)

National Geographic - Nazi Temple of Doom (2012)
English | MP4 | 832x468 | AVC 2008 Kbps 25.000 fps | AC3 128 Kbps 48.0 khz | 44mn 28s | 680 MB
Genre: Documentary

What links Adolf Hitler, Heindrich Himmler and a priceless Celtic cauldron recently discovered at the bottom of a lake in Bavaria? In this film an investigation uncovers allegations of mafia involvement, an international fraud trial where millions of dollars are at stake and a forensic discovery that stuns the archaeological world and steers the mystery towards Himmler’s SS shrine at Wewelsburg and Hitler’s obsessive quest for the Holy Grail. This seemingly priceless and beautiful object has brought death and disaster to everyone who has attempted to own it but who did make it and why?
General
Complete name : National.Geographic.Nazi.Temple.of.Doom.mp4
Format : MPEG-4
Format profile : Base Media
Codec ID : isom
File size : 680 MiB
Duration : 44mn 28s
Overall bit rate : 2 138 Kbps
Encoded date : UTC 2013-01-20 23:57:01
Tagged date : UTC 2013-01-20 23:57:01
Writing application : Lavf51.12.1

Video
ID : 1
Format : AVC
Format/Info : Advanced Video Codec
Format profile : High@L3.0
Format settings, CABAC : No
Format settings, ReFrames : 1 frame
Format settings, GOP : M=1, N=12
Codec ID : avc1
Codec ID/Info : Advanced Video Coding
Duration : 44mn 28s
Bit rate : 2 008 Kbps
Width : 832 pixels
Height : 468 pixels
Display aspect ratio : 16:9
Frame rate mode : Constant
Frame rate : 25.000 fps
Color space : YUV
Chroma subsampling : 4:2:0
Bit depth : 8 bits
Scan type : Progressive
Bits/(Pixel*Frame) : 0.206
Stream size : 639 MiB (94%)
Encoded date : UTC 2013-01-20 23:57:01
Tagged date : UTC 2013-01-20 23:57:01

Audio
ID : 2
Format : AC-3
Format/Info : Audio Coding 3
Mode extension : CM (complete main)
Format settings, Endianness : Big
Codec ID : ac-3
Duration : 44mn 28s
Bit rate mode : Constant
Bit rate : 128 Kbps
Channel(s) : 2 channels
Channel positions : Front: L R
Sampling rate : 48.0 KHz
Bit depth : 16 bits
Compression mode : Lossy
Stream size : 40.7 MiB (6%)
Encoded date : UTC 2013-01-20 23:57:01
Tagged date : UTC 2013-01-20 23:57:01

Screenshots

National Geographic - Nazi Temple of Doom (2012)

National Geographic - Nazi Temple of Doom (2012)

National Geographic - Nazi Temple of Doom (2012)

National Geographic - Nazi Temple of Doom (2012)

no mirrors please, Follow The Rules
Visit Polik88 Blog Here
no password