National Geographic - Taboo: Weird Weddings (2012)

Posted By: Polik88
National Geographic - Taboo: Weird Weddings (2012)

National Geographic - Taboo: Weird Weddings (2012)
English | MP4 | 832x468 | AVC 2014 Kbps 25.000 fps | AC3 128 Kbps 48.0 khz | 44mn 54s | 689 MB
Genre: Documentary

Marriage in one form or another is as old as civilization, but today, some weddings turn their back on tradition. In Jamaica, nine couples tie the knot au natural. In California, the bride and groom are dressed, but it's even more bizarre — they're dogs. Some weddings can even seem dangerous affairs. In Indonesia, a young man kidnaps his bride, while in one village in India; pimps plot violence when a mass wedding threatens their trade.
General
Complete name : National.Geographic.Taboo.Weird.Weddings.mp4
Format : MPEG-4
Format profile : Base Media
Codec ID : isom
File size : 689 MiB
Duration : 44mn 54s
Overall bit rate : 2 144 Kbps
Encoded date : UTC 2013-01-31 14:03:56
Tagged date : UTC 2013-01-31 14:03:56
Writing application : Lavf51.12.1

Video
ID : 1
Format : AVC
Format/Info : Advanced Video Codec
Format profile : High@L3.0
Format settings, CABAC : No
Format settings, ReFrames : 1 frame
Format settings, GOP : M=1, N=12
Codec ID : avc1
Codec ID/Info : Advanced Video Coding
Duration : 44mn 54s
Bit rate : 2 014 Kbps
Width : 832 pixels
Height : 468 pixels
Display aspect ratio : 16:9
Frame rate mode : Constant
Frame rate : 25.000 fps
Color space : YUV
Chroma subsampling : 4:2:0
Bit depth : 8 bits
Scan type : Progressive
Bits/(Pixel*Frame) : 0.207
Stream size : 647 MiB (94%)
Encoded date : UTC 2013-01-31 14:03:56
Tagged date : UTC 2013-01-31 14:03:56

Audio
ID : 2
Format : AC-3
Format/Info : Audio Coding 3
Mode extension : CM (complete main)
Format settings, Endianness : Big
Codec ID : ac-3
Duration : 44mn 54s
Bit rate mode : Constant
Bit rate : 128 Kbps
Channel(s) : 2 channels
Channel positions : Front: L R
Sampling rate : 48.0 KHz
Bit depth : 16 bits
Compression mode : Lossy
Stream size : 41.1 MiB (6%)
Encoded date : UTC 2013-01-31 14:03:56
Tagged date : UTC 2013-01-31 14:03:56

Screenshots

National Geographic - Taboo: Weird Weddings (2012)

National Geographic - Taboo: Weird Weddings (2012)

National Geographic - Taboo: Weird Weddings (2012)

no mirrors please, Follow The Rules
Visit Polik88 Blog Here
no password