Tags
Language
Tags

PBS - Native America Part 1: From Caves to Cosmos (2018)

Posted By: notbanned
720p (HD) / WEBRip IMDb
PBS - Native America Part 1: From Caves to Cosmos (2018)

PBS - Native America Part 1: From Caves to Cosmos (2018)
WEBRip | 1280x720 | .MKV/AVC @ 4251 Kbps | 53 min 31 s | 1.63 GiB
Audio: English AAC 93.4 kbps, 2 channels | Subs: None
Genre: Documentary | History

At the intersection of Native knowledge and modern scholarship is a new vision of America and its people. Native America is a four-part PBS series that challenges everything we thought we knew about the Americas before and since contact with Europe. It travels through 15,000-years to showcase massive cities, unique systems of science, art, and writing, and 100 million people connected by social networks and spiritual beliefs spanning two continents. The series reveals some of the most advanced cultures in human history and the Native American people who created it and whose legacy continues, unbroken, to this day. From Caves to Cosmos focuses on the deep roots of Native America: Who are America’s First Peoples and how did they create their unique world? Answers emerge from Hopi Elders on pilgrimage at sacred Chaco Canyon in the New Mexico desert, scientists examining ancient cave painting in the Amazon jungle, Chumash boat builders exploring their tribe’s ancient migration legacy off California’s coast, and an archaeologist digging deep below a towering pyramid near Mexico City.

General
Unique ID : 326783188530860866364800499104724829252 (0xF5D8271EA5BD04EEAAD036DD13944444)
Complete name : Native.America.2018.Part.1.From.Caves.to.Cosmos.720p.mkv
Format : Matroska
Format version : Version 4 / Version 2
File size : 1.63 GiB
Duration : 53 min 31 s
Overall bit rate : 4 347 kb/s

Video
ID : 1
Format : AVC
Format/Info : Advanced Video Codec
Format profile : High@L4.1
Format settings, CABAC : Yes
Format settings, ReFrames : 8 frames
Codec ID : V_MPEG4/ISO/AVC
Duration : 53 min 31 s
Bit rate : 4 251 kb/s
Width : 1 280 pixels
Height : 720 pixels
Display aspect ratio : 16:9
Frame rate mode : Constant
Frame rate : 23.976 (24000/1001) FPS
Color space : YUV
Chroma subsampling : 4:2:0
Bit depth : 8 bits
Scan type : Progressive
Bits/(Pixel*Frame) : 0.192
Stream size : 1.59 GiB (98%)
Writing library : x264 core 157 r2932 303c484
Encoding settings : cabac=1 / ref=8 / deblock=1:-3:-3 / analyse=0x3:0x133 / me=umh / subme=9 / psy=1 / psy_rd=1.00:0.00 / mixed_ref=1 / me_range=16 / chroma_me=1 / trellis=2 / 8x8dct=1 / cqm=0 / deadzone=21,11 / fast_pskip=1 / chroma_qp_offset=-2 / threads=18 / lookahead_threads=1 / sliced_threads=0 / nr=0 / decimate=1 / interlaced=0 / bluray_compat=0 / constrained_intra=0 / bframes=3 / b_pyramid=2 / b_adapt=2 / b_bias=0 / direct=3 / weightb=1 / open_gop=0 / weightp=2 / keyint=250 / keyint_min=23 / scenecut=40 / intra_refresh=0 / rc_lookahead=60 / rc=crf / mbtree=1 / crf=18.0 / qcomp=0.60 / qpmin=0 / qpmax=69 / qpstep=4 / ip_ratio=1.40 / aq=1:1.00
Language : English
Default : Yes
Forced : No
Color range : Limited
Matrix coefficients : BT.709

Audio
ID : 2
Format : AAC
Format/Info : Advanced Audio Codec
Format profile : LC
Codec ID : A_AAC
Duration : 53 min 31 s
Bit rate : 93.4 kb/s
Channel(s) : 2 channels
Channel positions : Front: L R
Sampling rate : 48.0 kHz
Frame rate : 46.875 FPS (1024 spf)
Compression mode : Lossy
Stream size : 35.7 MiB (2%)
Language : English
Default : Yes
Forced : No


Screenshots:

PBS - Native America Part 1: From Caves to Cosmos (2018)

PBS - Native America Part 1: From Caves to Cosmos (2018)

PBS - Native America Part 1: From Caves to Cosmos (2018)

PBS - Native America Part 1: From Caves to Cosmos (2018)