Tags
Language
Tags

BBC - Natural World: Attenborough and the Empire of the Ants (2017)

Posted By: notbanned
720p (HD) / WEB-DL
BBC - Natural World: Attenborough and the Empire of the Ants (2017)

BBC - Natural World: Attenborough and the Empire of the Ants (2017)
WEB-DL | 1280x720 | .MKV/AVC @ 2283 Kbps | 59 min 2 s | 1.07 GiB
Audio: English AAC 317 kbps, 2 channels | Subs: English
Genre: Documentary

David Attenborough is in the Swiss Jura Mountains to discover the secrets of a giant. Beneath his feet lies a vast network of tunnels and chambers, home to a huge empire of ants. It is believed to be one of the largest animal societies in the world, where over a billion ants from rival colonies live in peace. Their harmonious existence breaks many of the rules for both ants and evolution, and raises some important questions. Through winter, spring and into summer, David turns detective to find the answers.

General
Unique ID : 128297771385720138790931765387216514667 (0x608540812BBC4A691D95ADC5DFE36E6B)
Complete name : Natural.World.S37E08.Attenborough.and.the.Empire.of.the.Ants.720p.mkv
Format : Matroska
Format version : Version 4 / Version 2
File size : 1.07 GiB
Duration : 59 min 2 s
Overall bit rate mode : Variable
Overall bit rate : 2 603 kb/s

Video
ID : 2
Format : AVC
Format/Info : Advanced Video Codec
Format profile : High@L4.1
Format settings, CABAC : Yes
Format settings, ReFrames : 2 frames
Codec ID : V_MPEG4/ISO/AVC
Duration : 59 min 2 s
Bit rate mode : Variable
Bit rate : 2 283 kb/s
Maximum bit rate : 3 500 kb/s
Width : 1 280 pixels
Height : 720 pixels
Display aspect ratio : 16:9
Frame rate mode : Constant
Frame rate : 25.000 FPS
Color space : YUV
Chroma subsampling : 4:2:0
Bit depth : 8 bits
Scan type : Progressive
Bits/(Pixel*Frame) : 0.099
Stream size : 964 MiB (88%)
Default : Yes
Forced : No

Audio
ID : 1
Format : AAC
Format/Info : Advanced Audio Codec
Format profile : LC
Codec ID : A_AAC
Duration : 59 min 1 s
Bit rate : 317 kb/s
Channel(s) : 2 channels
Channel positions : Front: L R
Sampling rate : 48.0 kHz
Frame rate : 46.875 FPS (1024 spf)
Compression mode : Lossy
Delay relative to video : -40 ms
Stream size : 134 MiB (12%)
Language : English
Default : Yes
Forced : No

Text
ID : 3
Format : UTF-8
Codec ID : S_TEXT/UTF8
Codec ID/Info : UTF-8 Plain Text
Duration : 58 min 21 s
Bit rate : 137 b/s
Count of elements : 638
Stream size : 58.9 KiB (0%)
Default : No
Forced : No


Screenshots:

BBC - Natural World: Attenborough and the Empire of the Ants (2017)

BBC - Natural World: Attenborough and the Empire of the Ants (2017)

BBC - Natural World: Attenborough and the Empire of the Ants (2017)

BBC - Natural World: Attenborough and the Empire of the Ants (2017)