Tags
Language
Tags

PBS - NATURE: My Garden of a Thousand Bees (2021)

Posted By: notbanned
1080p (FullHD) / WEBRip IMDb
PBS - NATURE: My Garden of a Thousand Bees (2021)

PBS - NATURE: My Garden of a Thousand Bees (2021)
WEBRip | 1920x1080 | .MKV/AVC @ 6500 Kbps | 53 min 13 s | 2.50 GiB
Audio: English AAC 157 kbps, 2 channels | Subs: English
Genre: Documentary

A story of surprise and revelation. Martin Dohrn, a veteran wildlife cameraman and a bee enthusiast, embarked on a special challenge during the COVID-19 lockdown of 2020: to film all the bees he could find in his tiny urban garden in Bristol, England. By the end of the summer, he became bee obsessed and developed relationships with some individuals.

General
Unique ID : 213307467235826042275261781545136997914 (0xA079861B1AD97773F1DD44A42F50C61A)
Complete name : Nature.My.Garden.of.a.Thousand.Bees.1080p.mkv
Format : Matroska
Format version : Version 4 / Version 2
File size : 2.50 GiB
Duration : 53 min 13 s
Overall bit rate : 6 711 kb/s

Video
ID : 1
Format : AVC
Format/Info : Advanced Video Codec
Format profile : High@L4
Format settings, CABAC : Yes
Format settings, ReFrames : 4 frames
Format settings, GOP : M=4, N=60
Codec ID : V_MPEG4/ISO/AVC
Duration : 53 min 13 s
Bit rate mode : Constant
Bit rate : 6 500 kb/s
Width : 1 920 pixels
Height : 1 080 pixels
Display aspect ratio : 16:9
Frame rate mode : Constant
Frame rate : 29.970 (30000/1001) FPS
Color space : YUV
Chroma subsampling : 4:2:0
Bit depth : 8 bits
Scan type : Progressive
Bits/(Pixel*Frame) : 0.105
Stream size : 2.44 GiB (98%)
Language : English
Default : Yes
Forced : No
Color range : Limited
Color primaries : BT.709
Transfer characteristics : BT.709
Matrix coefficients : BT.709

Audio
ID : 2
Format : AAC
Format/Info : Advanced Audio Codec
Format profile : LC
Codec ID : A_AAC
Duration : 53 min 13 s
Bit rate : 157 kb/s
Channel(s) : 2 channels
Channel positions : Front: L R
Sampling rate : 48.0 kHz
Frame rate : 46.875 FPS (1024 spf)
Compression mode : Lossy
Stream size : 59.9 MiB (2%)
Language : English
Default : Yes
Forced : No

Text
ID : 3
Format : UTF-8
Codec ID : S_TEXT/UTF8
Codec ID/Info : UTF-8 Plain Text
Duration : 53 min 9 s
Bit rate : 84 b/s
Count of elements : 839
Stream size : 33.0 KiB (0%)
Language : English
Default : No
Forced : No


Screenshots:

PBS - NATURE: My Garden of a Thousand Bees (2021)

PBS - NATURE: My Garden of a Thousand Bees (2021)

PBS - NATURE: My Garden of a Thousand Bees (2021)

PBS - NATURE: My Garden of a Thousand Bees (2021)