National Geographic - Nazi Megastructures: Series 4 (2017)

Posted By: Tutorial
National Geographic - Nazi Megastructures: Series 4 (2017)

National Geographic - Nazi Megastructures: Series 4 (2017)
HDTV | 1280 x 720 | .MP4/AVC @ 2970 Kbps | 5x~45mn | 6.64 GB
Audio: English AAC 160 Kbps, 2 channels | Subs: None
Genre: Documentary, War

Over six unforgettable episodes, Nazi Megastructures uncovers the hidden remains of Hitler's most ambitious Megastructures, telling the stories of the engineering geniuses that designed them and revealing how these structures sparked a technological revolution that changed warfare forever.
Part 1: Hitler's War Trains: Hitler's Railways of Death
The railways were the lifeblood of the Nazi empire. It was a vast network that spread Nazi ambition and control across Europe and beyond. Through use of drama, documentary and archive the programme reveals Hitler's personal train, unseen bunkers, massive depots, railway weapons and record-breaking engines that made up what was arguably the Nazis biggest ever megastructure: the railways. The rail networks most sinister function was to facilitate the Final Solution. Hitler and the mastermind of the Holocaust, Himmler, used the vast rail network to transport Jews to concentration camps and to their death.

Part 2: Hitler's Italian Fortress
The story of one of the Nazis' toughest structures. These defensive lines spanned the Italian peninsula, stalling the Allies for almost two years.

Part 3: Hitler's Arctic Fortress

It's one of the most daring and bold operations of WW2: The Nazi's occupation and fortification of Norway. Hitler demands breath-taking defences along the country's 1500 mile coastline to prevent an Allied invasion. It includes some of the biggest gun batteries of the entire war. Norway is an Arctic frontline from which the Nazis can attack the Soviet Union, but it also offers Hitler the possible means to make an atomic bomb.

Part 4: Hitler's Propaganda Machine
During the brutal Battle of Berlin in 1945, 100,000 German civilians fight to the death and 6,000 commit suicide. How did the Nazis motivate ordinary civilians to fight even when defeat was inevitable? The answer is propaganda, and in Dr Josef Goebbels, Adolf Hitler found a genius of mind-manipulation. This episode reveals the evidence left behind by the Nazi propaganda machine, monuments to the sinister but brilliant brain-washing of an entire nation.

Part 5: Hitler's Luftwaffe
The Luftwaffe, a revolutionary German air force, created from nothing and fast-tracked by Hitler to annihilate the enemy from the skies. From the factory where the deadly Heinkel HE111 bombers were mass-produced, to the Baltic and the ruins of the Luftwaffe's top-secret torpedo test facility to the most technologically advanced jet bomber of World War 2, Nazi Megastructures lifts the lid on Hitler's war from above.

also You can find my last: World War II

General
Complete name : Nazi.Megastructures.Series.4.1of5.mp4
Format : MPEG-4
Format profile : Base Media / Version 2
Codec ID : mp42 (mp42/isom/avc1)
File size : 1.92 GiB
Duration : 1 h 27 min
Overall bit rate mode : Variable
Overall bit rate : 3 135 kb/s
Encoded date : UTC 2017-09-27 13:36:27
Tagged date : UTC 2017-09-27 14:50:12
Writing application : HandBrake 0.9.9 2013052900

Video
ID : 1
Format : AVC
Format/Info : Advanced Video Codec
Format profile : High@L4.1
Format settings, CABAC : Yes
Format settings, ReFrames : 4 frames
Codec ID : avc1
Codec ID/Info : Advanced Video Coding
Duration : 1 h 27 min
Bit rate : 2 970 kb/s
Width : 1 280 pixels
Height : 720 pixels
Display aspect ratio : 16:9
Frame rate mode : Constant
Frame rate : 25.000 FPS
Color space : YUV
Chroma subsampling : 4:2:0
Bit depth : 8 bits
Scan type : Progressive
Bits/(Pixel*Frame) : 0.129
Stream size : 1.82 GiB (95%)
Writing library : x264 core 130 r2273 b3065e6
Encoding settings : cabac=1 / ref=1 / deblock=1:0:0 / analyse=0x3:0x113 / me=hex / subme=2 / psy=1 / psy_rd=1.00:0.00 / mixed_ref=0 / me_range=16 / chroma_me=1 / trellis=0 / 8x8dct=1 / cqm=0 / deadzone=21,11 / fast_pskip=1 / chroma_qp_offset=0 / threads=6 / lookahead_threads=2 / sliced_threads=0 / nr=0 / decimate=1 / interlaced=0 / bluray_compat=0 / constrained_intra=0 / bframes=3 / b_pyramid=2 / b_adapt=1 / b_bias=0 / direct=1 / weightb=1 / open_gop=0 / weightp=1 / keyint=250 / keyint_min=25 / scenecut=40 / intra_refresh=0 / rc_lookahead=10 / rc=crf / mbtree=1 / crf=20.0 / qcomp=0.60 / qpmin=0 / qpmax=69 / qpstep=4 / vbv_maxrate=62500 / vbv_bufsize=78125 / crf_max=0.0 / nal_hrd=none / ip_ratio=1.40 / aq=1:1.00
Encoded date : UTC 2017-09-27 13:36:27
Tagged date : UTC 2017-09-27 14:50:12
Color range : Limited
Color primaries : BT.709
Transfer characteristics : BT.709
Matrix coefficients : BT.709

Audio
ID : 2
Format : AAC
Format/Info : Advanced Audio Codec
Format profile : LC
Codec ID : 40
Duration : 1 h 27 min
Bit rate mode : Variable
Bit rate : 160 kb/s
Maximum bit rate : 201 kb/s
Channel(s) : 2 channels
Channel positions : Front: L R
Sampling rate : 48.0 kHz
Frame rate : 46.875 FPS (1024 spf)
Compression mode : Lossy
Stream size : 101 MiB (5%)
Title : Stereo
Encoded date : UTC 2017-09-27 13:36:27
Tagged date : UTC 2017-09-27 14:50:12
Screenshots

National Geographic - Nazi Megastructures: Series 4 (2017)

National Geographic - Nazi Megastructures: Series 4 (2017)

National Geographic - Nazi Megastructures: Series 4 (2017)

National Geographic - Nazi Megastructures: Series 4 (2017)

Welcome to my blog - daily update!

National Geographic - Nazi Megastructures: Series 4 (2017)