Tags
Language
Tags

Discovery Channel - Nazis: The Occult Conspiracy (2002)

Posted By: Tutorial
Discovery Channel - Nazis: The Occult Conspiracy (2002)

Discovery Channel - Nazis: The Occult Conspiracy (2002)
DVDRip | 592 x 464 | .AVI/DivX @ 1619 Kbps | 1 h 44 min | 1.46 GB
Audio: English AC-3 384 Kbps, 2 channels | Subs: None
Genre: Documentary, War

Astrology. Reincarnation. A new blood religion. In this chilling yet fascinating glimpse at recent historical events, discover how Nazi beliefs were based on a perversion of ancient myths, pagan lore and the occult. In their quest to create an Aryan superace, the Nazis left no myth or religion unexploited; using astrological forecasts to plan battles; pendulums to locate allied battleships; the prophesies of Nostradamus to frighten the Allies, and sacred symbols, such as Nordic runes, to inspire their warriors to battle. Nazis: The Occult Conspiracy explores the disturbing ways the Third Reich linked occult practices with political aims and created a reign of terror unparalleled in history.
also You can look my other last: World War II

General
Complete name : Discovery.Nazis.The.Occult.Conspiracy.avi
Format : AVI
Format/Info : Audio Video Interleave
File size : 1.46 GiB
Duration : 1 h 44 min
Overall bit rate : 2 015 kb/s
Writing application : VirtualDubMod 1.5.10.2 (build 2540/release)
Writing library : VirtualDubMod build 2540/release

Video
ID : 0
Format : MPEG-4 Visual
Format settings, BVOP : 1
Format settings, QPel : No
Format settings, GMC : No warppoints
Format settings, Matrix : Default (H.263)
Muxing mode : Packed bitstream
Codec ID : DX50
Codec ID/Hint : DivX 5
Duration : 1 h 44 min
Bit rate : 1 619 kb/s
Width : 592 pixels
Height : 464 pixels
Display aspect ratio : 1.276
Frame rate : 29.970 (30000/1001) FPS
Color space : YUV
Chroma subsampling : 4:2:0
Bit depth : 8 bits
Scan type : Progressive
Compression mode : Lossy
Bits/(Pixel*Frame) : 0.197
Stream size : 1.18 GiB (80%)
Writing library : DivX 5.2.1 Beta (UTC 2004-09-08)

Audio
ID : 1
Format : AC-3
Format/Info : Audio Coding 3
Format settings, Endianness : Big
Codec ID : 2000
Duration : 1 h 44 min
Bit rate mode : Constant
Bit rate : 384 kb/s
Channel(s) : 2 channels
Channel positions : Front: L R
Sampling rate : 48.0 kHz
Frame rate : 31.250 FPS (1536 spf)
Bit depth : 16 bits
Compression mode : Lossy
Delay relative to video : 23 ms
Stream size : 286 MiB (19%)
Alignment : Split accross interleaves
Interleave, duration : 33 ms (1.00 video frame)
Interleave, preload duration : 500 ms
Service kind : Complete Main
Screenshots

Discovery Channel - Nazis: The Occult Conspiracy (2002)

Discovery Channel - 			  			 	   			 	  		  		  		  		  		  		  		  		   			 	   		 	    		 	    	 			   		  	   		      		      	 			   		 	    		      	 			   		   	  			  	  		 	 				 Nazis: The Occult Conspiracy (2002)

Discovery Channel - Nazis: The Occult Conspiracy (2002)

Discovery Channel - Nazis: The Occult Conspiracy (2002)

Welcome to my blog - daily update!