Tags
Language
Tags

SBS - Ngumpin Kartiya (2020)

Posted By: notbanned
1080p (FullHD) / HDTV
SBS - Ngumpin Kartiya (2020)

SBS - Ngumpin Kartiya (2020)
HDTV | 1920x1080 | .MKV/AVC @ 4280 Kbps | 17 min 56 s | 574 MiB
Audio: English MP2 192 kbps, 2 channels | Subs: None
Genre: Documentary

This documentary looks at a proud and sometimes difficult past, and also celebrates a bright and better future. The Gurindji story, immortalised in the Paul Kelly and Kev Carmody classic From Little Things Big Things Grow, is known by many Australians - but often only vaguely. This film sheds light on the pivotal historical events that led to Aboriginal Land Rights and forever changed our nation and the plight of Indigenous people to reclaim their land. It does so by revisiting the Gurindji community all these years later to hear from the descendants of Vincent Lingiari, and those who took a brave stand against power and privilege some 54 years ago.

General
Unique ID : 297620097232416035697844564763201254592 (0xDFE78BB509218D925D70153FBB9034C0)
Complete name : Ngumpin.Kartiya.2020.1080p.mkv
Format : Matroska
Format version : Version 4 / Version 2
File size : 574 MiB
Duration : 17 min 56 s
Overall bit rate : 4 474 kb/s

Video
ID : 1
Format : AVC
Format/Info : Advanced Video Codec
Format profile : High@L4
Format settings, CABAC : Yes
Format settings, ReFrames : 4 frames
Format settings, GOP : M=8, N=24
Codec ID : V_MPEG4/ISO/AVC
Duration : 17 min 56 s
Bit rate : 4 280 kb/s
Width : 1 920 pixels
Height : 1 080 pixels
Display aspect ratio : 16:9
Frame rate mode : Variable
Frame rate : 25.043 FPS
Original frame rate : 25.000 FPS
Standard : Component
Color space : YUV
Chroma subsampling : 4:2:0
Bit depth : 8 bits
Scan type : MBAFF
Scan type, store method : Interleaved fields
Scan order : Top Field First
Bits/(Pixel*Frame) : 0.082
Stream size : 549 MiB (96%)
Default : Yes
Forced : No
Color range : Limited
Color primaries : BT.709
Transfer characteristics : BT.709
Matrix coefficients : BT.709

Audio
ID : 2
Format : MPEG Audio
Format version : Version 1
Format profile : Layer 2
Codec ID : A_MPEG/L2
Codec ID/Hint : MP2
Duration : 17 min 56 s
Bit rate mode : Constant
Bit rate : 192 kb/s
Channel(s) : 2 channels
Sampling rate : 48.0 kHz
Frame rate : 41.667 FPS (1152 spf)
Compression mode : Lossy
Stream size : 24.6 MiB (4%)
Language : English
Default : Yes
Forced : No


Screenshots:

SBS - Ngumpin Kartiya (2020)

SBS - Ngumpin Kartiya (2020)

SBS - Ngumpin Kartiya (2020)

SBS - Ngumpin Kartiya (2020)