Tags
Language
Tags

Nice Girls Don't Stay for Breakfast (2019)

Posted By: Tavaz
720p (HD) / BDRip IMDb
Nice Girls Don't Stay for Breakfast (2019)

Nice Girls Don't Stay for Breakfast (2019)
BDRip | MKV | 1280x720 | English | H264 @ 2560 kbps | AC-3 @ 448 kbps | 1 h 35 min | 2.32 GiB
Genre: Documentary

In the late 1990s, iconic photographer Bruce Weber managed to convince Robert Mitchum to appear before his camera for a filmed portrait. Weber shot Mitchum in 35mm and 16mm black and white, hanging with friends and cronies in restaurants and hotel rooms and singing before a microphone at Capitol Records, recording standards for a projected album. When Mitchum passed away in 1997, Weber parked his beloved project and it was some time before he went back into his footage, picked up the camera again to continue, and complete, his tribute to Mitchum.

b7739c36f0f10e5617e4c465a665a6c7.mkv (2.3 GB)



General
Unique ID : 188044667419587755009036115043829325878 (0x8D7815E90068F715741058ADFDE2A036)
Complete name : ./b7739c36f0f10e5617e4c465a665a6c7.mkv
Format : Matroska
Format version : Version 4 / Version 2
File size : 2.32 GiB
Duration : 1 h 35 min
Overall bit rate : 3 459 kb/s
Movie name : Nice.Girls.Don't.Stay.for.Breakfast.2018.720p.BluRay.x264-x0r
Encoded date : UTC 2021-03-22 17:59:25
Writing application : mkvmerge v7.7.0 ('Six Voices') 64bit built on Mar 1 2015 01:50:05
Writing library : libebml v1.3.1 + libmatroska v1.4.2

Video
ID : 1
Format : AVC
Format/Info : Advanced Video Codec
Format profile : High@L4
Format settings : CABAC / 8 Ref Frames
Format settings, CABAC : Yes
Format settings, RefFrames : 8 frames
Codec ID : V_MPEG4/ISO/AVC
Duration : 1 h 35 min
Bit rate : 2 560 kb/s
Width : 1 280 pixels
Height : 720 pixels
Display aspect ratio : 16:9
Frame rate mode : Variable
Frame rate : 23.976 FPS
Color space : YUV
Chroma subsampling : 4:2:0
Bit depth : 8 bits
Scan type : Progressive
Bits/(Pixel*Frame) : 0.116
Stream size : 1.72 GiB (74%)
Writing library : x264 core 142 r2389 956c8d8
Encoding settings : cabac=1 / ref=8 / deblock=1:-2:-2 / analyse=0x3:0x133 / me=umh / subme=9 / psy=1 / psy_rd=1.20:0.25 / mixed_ref=0 / me_range=24 / chroma_me=1 / trellis=2 / 8x8dct=1 / cqm=0 / deadzone=21,11 / fast_pskip=0 / chroma_qp_offset=-4 / threads=12 / lookahead_threads=1 / sliced_threads=0 / nr=0 / decimate=1 / interlaced=0 / bluray_compat=0 / constrained_intra=0 / bframes=4 / b_pyramid=2 / b_adapt=2 / b_bias=0 / direct=3 / weightb=1 / open_gop=0 / weightp=2 / keyint=240 / keyint_min=24 / scenecut=40 / intra_refresh=0 / rc_lookahead=120 / rc=2pass / mbtree=1 / bitrate=2560 / ratetol=1.0 / qcomp=0.00 / qpmin=0 / qpmax=69 / qpstep=4 / cplxblur=20.0 / qblur=0.5 / vbv_maxrate=20000 / vbv_bufsize=25000 / nal_hrd=none / filler=0 / ip_ratio=1.10 / aq=1:1.20
Language : English
Default : Yes
Forced : No
Color range : Limited
Color primaries : BT.709
Transfer characteristics : BT.709
Matrix coefficients : BT.709

Audio #1
ID : 2
Format : AC-3
Format/Info : Audio Coding 3
Format settings, Endianness : Big
Codec ID : A_AC3
Duration : 1 h 35 min
Bit rate mode : Constant
Bit rate : 448 kb/s
Channel(s) : 6 channels
Channel positions : Front: L C R, Side: L R, LFE
Sampling rate : 48.0 kHz
Frame rate : 31.250 FPS (1536 SPF)
Bit depth : 16 bits
Compression mode : Lossy
Delay relative to video : -5 ms
Stream size : 307 MiB (13%)
Title : Surround
Language : English
Service kind : Complete Main
Default : Yes
Forced : No

Audio #2
ID : 3
Format : AC-3
Format/Info : Audio Coding 3
Mode : Dolby Digital
Format settings, Endianness : Big
Codec ID : A_AC3
Duration : 1 h 35 min
Bit rate mode : Constant
Bit rate : 448 kb/s
Channel(s) : 2 channels
Channel positions : Front: L R
Sampling rate : 48.0 kHz
Frame rate : 31.250 FPS (1536 SPF)
Bit depth : 16 bits
Compression mode : Lossy
Delay relative to video : -5 ms
Stream size : 307 MiB (13%)
Title : Dolby
Language : English
Service kind : Complete Main
Default : No
Forced : No

Menu
00:00:00.000 : :Chapter 1
00:10:17.551 : :Chapter 2
00:20:45.344 : :Chapter 3
00:31:44.336 : :Chapter 4
00:42:04.164 : :Chapter 5
00:51:28.144 : :Chapter 6
01:00:42.364 : :Chapter 7
01:11:52.283 : :Chapter 8
01:21:56.137 : :Chapter 9
01:32:27.267 : :Chapter 10





Nice Girls Don't Stay for Breakfast (2019)


Nice Girls Don't Stay for Breakfast (2019)


Nice Girls Don't Stay for Breakfast (2019)


Nice Girls Don't Stay for Breakfast (2019)


Nice Girls Don't Stay for Breakfast (2019)