Rien à déclarer / Nichts zu verzollen (2010)

Posted By: FenixN
Rien à déclarer / Nichts zu verzollen (2010)

Rien à déclarer / Nichts zu verzollen (2010)
DVDRip | AVI / XviD, 1486 kb/s | 680x288 | 01:43:56 | German: MP3, 128 kb/s (2 ch) | 1.17 GB
Genre: Comedy | France

Der Belgische Grenzbeamte Ruben Vandevoorde, der in dem kleinen Grenzstädtchen Courquain arbeitet, verabscheut das Schengener Abkommen in Europa. Nicht nur ist Ruben gegen offenen Grenzen, er will auch nicht, dass die verhassten Franzosen einfach so die Grenze übertreten können. Mag er doch nichts lieber, als diese bei der Grenzüberschreitung so richtig schön zu schikanieren. Als Ruben dazu abkommandiert wird, mit seinem französischen Kollegen Mathias Ducatel gemeinsam auf Patrouille zu gehen, kommt er dem Befehl zähneknirschend nach und ist fortan mit Mathias an der Grenze unterwegs, um Zollgut abzufangen. Nur gut, dass Ruben nicht weiß, dass Mathias ein Auge auf seine Schwester Louise geworfen hat und diese den Franzosen auch sehr liebenswert findet.

imdb: 6,3/10 (1.066 Stimmen)

Format : AVI
Format/Info : Audio Video Interleave
File size : 1.17 GiB
Duration : 1h 43mn
Overall bit rate : 1 617 Kbps
Writing application : Nandub v1.0rc2
Writing library : Nandub build 1853/release

Video
ID : 0
Format : MPEG-4 Visual
Format profile : Advanced Simple@L5
Format settings, BVOP : 1
Format settings, QPel : No
Format settings, GMC : No warppoints
Format settings, Matrix : Default (MPEG)
Muxing mode : Packed bitstream
Codec ID : XVID
Codec ID/Hint : XviD
Duration : 1h 43mn
Bit rate : 1 486 Kbps
Width : 680 pixels
Height : 288 pixels
Display aspect ratio : 2.35:1
Frame rate : 25.000 fps
Color space : YUV
Chroma subsampling : 4:2:0
Bit depth : 8 bits
Scan type : Progressive
Compression mode : Lossy
Bits/(Pixel*Frame) : 0.304
Stream size : 1.08 GiB (92%)
Writing library : XviD 1.2.1 (UTC 2008-12-04)

Audio
ID : 1
Format : MPEG Audio
Format version : Version 1
Format profile : Layer 3
Mode : Joint stereo
Mode extension : MS Stereo
Codec ID : 55
Codec ID/Hint : MP3
Duration : 1h 43mn
Bit rate mode : Variable
Bit rate : 118 Kbps
Nominal bit rate : 128 Kbps
Channel(s) : 2 channels
Sampling rate : 48.0 KHz
Compression mode : Lossy
Delay relative to video : 1ms
Stream size : 87.7 MiB (7%)
Alignment : Aligned on interleaves
Interleave, duration : 24 ms (0.60 video frame)
Interleave, preload duration : 481 ms
Writing library : LAME3.98r
Encoding settings : -m j -V 4 -q 3 -lowpass 17 –abr 128


screenshot
Rien à déclarer / Nichts zu verzollen (2010)

Rien à déclarer / Nichts zu verzollen (2010)

Rien à déclarer / Nichts zu verzollen (2010)


Welcome to the best movies collection (English, German, French language), best software, best eLearning video and many-many more: LINK
Do not forget to check my blog! Updated regularly!