Tags
Language
Tags

Night of the Living Dead (1990)

Posted By: Tavaz
1080p (FullHD) / BDRip IMDb
Night of the Living Dead (1990)

Night of the Living Dead (1990)
BDRip | MKV | 1920x1040 | English | H264 @ 13500 kbps | DTS @ 1509 kbps | 1 h 28 min | 9.29 GiB
Subtitles: English
Genre: Horror

In this remake of the original classic film, a group of people are trapped inside a farmhouse as legions of the walking dead try to get inside and use them for food.

Night.Of.The.Living.Dead.1990.1080p.BluRay.DTS.x264.D-Z0N3.part1.rar (4.9 GB)
Night.Of.The.Living.Dead.1990.1080p.BluRay.DTS.x264.D-Z0N3.part2.rar (4.5 GB)



General
Unique ID : 231335211597367642035891083842191091504 (0xAE098A86E212D6818532211C4DCFE730)
Complete name : ./Night.Of.The.Living.Dead.1990.1080p.BluRay.DTS.x264.D-Z0N3.mkv
Format : Matroska
Format version : Version 2
File size : 9.29 GiB
Duration : 1 h 28 min
Overall bit rate : 15.1 Mb/s
Encoded date : UTC 2012-10-07 03:04:21
Writing application : mkvmerge v5.8.0 ('No Sleep / Pillow') built on Sep 2 2012 15:37:04
Writing library : libebml v1.2.3 + libmatroska v1.3.0

Video
ID : 1
Format : AVC
Format/Info : Advanced Video Codec
Format profile : High@L4.1
Format settings : CABAC / 4 Ref Frames
Format settings, CABAC : Yes
Format settings, RefFrames : 4 frames
Codec ID : V_MPEG4/ISO/AVC
Duration : 1 h 28 min
Bit rate : 13.5 Mb/s
Width : 1 920 pixels
Height : 1 040 pixels
Display aspect ratio : 1.85:1
Frame rate mode : Constant
Frame rate : 23.976 (24000/1001) FPS
Color space : YUV
Chroma subsampling : 4:2:0
Bit depth : 8 bits
Scan type : Progressive
Bits/(Pixel*Frame) : 0.282
Stream size : 8.14 GiB (88%)
Title : x264
Writing library : x264 core 128 r2216 198a7ea
Encoding settings : cabac=1 / ref=4 / deblock=1:-3:-3 / analyse=0x3:0x113 / me=umh / subme=11 / psy=1 / psy_rd=1.10:0.20 / mixed_ref=1 / me_range=48 / chroma_me=1 / trellis=2 / 8x8dct=1 / cqm=0 / deadzone=21,11 / fast_pskip=0 / chroma_qp_offset=-3 / threads=6 / lookahead_threads=1 / sliced_threads=0 / nr=0 / decimate=0 / interlaced=0 / bluray_compat=0 / constrained_intra=0 / bframes=12 / b_pyramid=2 / b_adapt=2 / b_bias=0 / direct=3 / weightb=1 / open_gop=0 / weightp=2 / keyint=240 / keyint_min=23 / scenecut=40 / intra_refresh=0 / rc_lookahead=240 / rc=2pass / mbtree=1 / bitrate=13500 / ratetol=1.0 / qcomp=0.70 / qpmin=0 / qpmax=69 / qpstep=4 / cplxblur=20.0 / qblur=0.5 / vbv_maxrate=38000 / vbv_bufsize=30000 / nal_hrd=none / ip_ratio=1.40 / aq=1:1.00
Language : English
Default : Yes
Forced : No

Audio #1
ID : 2
Format : DTS
Format/Info : Digital Theater Systems
Mode : 16
Format settings, Endianness : Big
Codec ID : A_DTS
Duration : 1 h 28 min
Bit rate mode : Constant
Bit rate : 1 509 kb/s
Channel(s) : 6 channels
Channel positions : Front: L C R, Side: L R, LFE
Sampling rate : 48.0 kHz
Frame rate : 93.750 FPS (512 SPF)
Bit depth : 24 bits
Compression mode : Lossy
Stream size : 953 MiB (10%)
Title : DTS 5.1
Language : English
Default : Yes
Forced : No

Audio #2
ID : 3
Format : MPEG Audio
Format version : Version 2
Format profile : Layer 3
Format settings : Joint stereo / MS Stereo
Mode : Joint stereo
Mode extension : MS Stereo
Codec ID : A_MPEG/L3
Codec ID/Hint : MP3
Duration : 1 h 28 min
Bit rate mode : Constant
Bit rate : 64.0 kb/s
Channel(s) : 2 channels
Sampling rate : 24.0 kHz
Compression mode : Lossy
Stream size : 40.4 MiB (0%)
Title : Director's Commentary
Writing library : LAME3.99r
Encoding settings : -m j -V 4 -q 2 -lowpass 11 -b 64
Language : English
Default : No
Forced : No

Text
ID : 4
Format : UTF-8
Codec ID : S_TEXT/UTF8
Codec ID/Info : UTF-8 Plain Text
Title : English
Language : English
Default : No
Forced : No

Menu
00:00:00.000 : en:Opening Title
00:03:10.939 : en:Grave Situation
00:08:25.630 : en:Uncle Rege's House
00:11:12.135 : en:Ben
00:16:43.444 : en:Yard Clean-Up
00:18:06.769 : en:"Fight!"
00:20:03.452 : en:Trash Talk
00:22:55.531 : en:Hell On Earth
00:25:22.798 : en:Gun Search
00:27:50.043 : en:Tom & Harry
00:35:08.060 : en:In The Cellar
00:37:06.891 : en:Barricades
00:42:45.124 : en:EBS
00:44:05.226 : en:"Open This Door!"
00:47:02.132 : en:Bitten
00:49:33.316 : en:Mr. Magruder
00:51:55.883 : en:"Is He Dead?"
00:54:38.251 : en:New Report
00:57:30.691 : en:Key Search
01:00:06.907 : en:Going For Gas
01:04:06.154 : en:Tom Blows It
01:06:12.943 : en:Sarah
01:06:52.507 : en:"I Want That Gun."
01:09:10.053 : en:"Shoot It."
01:16:09.995 : en:Last Laugh
01:19:48.629 : en:Having Fun
01:22:07.318 : en:Too Late
01:23:01.647 : en:Another For The Fire
01:25:07.978 : en:Credits





Night of the Living Dead (1990)


Night of the Living Dead (1990)


Night of the Living Dead (1990)


Night of the Living Dead (1990)


Night of the Living Dead (1990)