Tags
Language
Tags

No Man's Land (2017)

Posted By: Without
1080p (FullHD) / WEB-DL IMDb
No Man's Land (2017)

No Man's Land (2017)
WEB-DL 720p | MKV | 1280x720 | AVC@4500 kb/s | English AAC@93.4 kb/s
Subs: English | 2 channels | 1 h 19 min | 2.53 GB
WEB-DL 1080p | MKV | 1920x1080 | AVC@6500 kb/s | English AAC@93.4 kb/s
Subs: English | 2 channels | 1 h 19 min | 3.63 GB
Genre: Documentary

Documentary about the 40-day occupation of Malheur National Wildlife Refuge, located south of Burns, Oregon. Fuelled by the belief that control and management of public lands does not belong with the federal government, Ammon Bundy leads a group of armed militants in a stand-off with law enforcement from January 2 to February 11, 2016.

IMDB - 1 win & 2 nominations.


General
No.Man's.Land.2017.720p.WEB-DL.AAC.H264.mkv
Format : Matroska
Format version : Version 4 / Version 2
File size : 2.53 GiB
Duration : 1 h 19 min
Overall bit rate : 4 531 kb/s
Encoded date : UTC 2018-05-08 20:35:20
Writing application : mkvmerge v23.0.0 ('The Bride Said No') 64-bit
Writing library : libebml v1.3.6 + libmatroska v1.4.9

Video
ID : 1
Format : AVC
Format/Info : Advanced Video Codec
Format profile : High@L3.1
Format settings : CABAC / 3 Ref Frames
Format settings, CABAC : Yes
Format settings, RefFrames : 3 frames
Codec ID : V_MPEG4/ISO/AVC
Duration : 1 h 19 min
Bit rate mode : Constant
Bit rate : 4 500 kb/s
Width : 1 280 pixels
Height : 720 pixels
Display aspect ratio : 16:9
Frame rate mode : Constant
Frame rate : 29.970 (30000/1001) FPS
Color space : YUV
Chroma subsampling : 4:2:0
Bit depth : 8 bits
Scan type : Progressive
Bits/(Pixel*Frame) : 0.163
Stream size : 2.47 GiB (98%)
Default : Yes
Forced : No

Audio
ID : 2
Format : AAC
Format/Info : Advanced Audio Codec
Format profile : LC
Codec ID : A_AAC-2
Duration : 1 h 19 min
Bit rate : 93.4 kb/s
Channel(s) : 2 channels
Channel positions : Front: L R
Sampling rate : 48.0 kHz
Frame rate : 46.875 FPS (1024 SPF)
Compression mode : Lossy
Delay relative to video : -33 ms
Stream size : 53.3 MiB (2%)
Language : English
Default : Yes
Forced : No

Text
ID : 3
Format : UTF-8
Codec ID : S_TEXT/UTF8
Codec ID/Info : UTF-8 Plain Text
Duration : 1 h 19 min
Bit rate : 92 b/s
Count of elements : 1538
Stream size : 53.7 KiB (0%)
Language : English
Default : Yes
Forced : No

General
No.Man's.Land.2017.1080p.WEB-DL.AAC.H264.mkv
Format : Matroska
Format version : Version 4 / Version 2
File size : 3.63 GiB
Duration : 1 h 19 min
Overall bit rate : 6 511 kb/s
Encoded date : UTC 2018-05-08 20:52:41
Writing application : mkvmerge v23.0.0 ('The Bride Said No') 64-bit
Writing library : libebml v1.3.6 + libmatroska v1.4.9

Video
ID : 1
Format : AVC
Format/Info : Advanced Video Codec
Format profile : High@L4
Format settings : CABAC / 3 Ref Frames
Format settings, CABAC : Yes
Format settings, RefFrames : 3 frames
Codec ID : V_MPEG4/ISO/AVC
Duration : 1 h 19 min
Bit rate mode : Constant
Bit rate : 6 500 kb/s
Width : 1 920 pixels
Height : 1 080 pixels
Display aspect ratio : 16:9
Frame rate mode : Constant
Frame rate : 29.970 (30000/1001) FPS
Color space : YUV
Chroma subsampling : 4:2:0
Bit depth : 8 bits
Scan type : Progressive
Bits/(Pixel*Frame) : 0.105
Stream size : 3.58 GiB (99%)
Default : Yes
Forced : No

Audio
ID : 2
Format : AAC
Format/Info : Advanced Audio Codec
Format profile : LC
Codec ID : A_AAC-2
Duration : 1 h 19 min
Bit rate : 93.4 kb/s
Channel(s) : 2 channels
Channel positions : Front: L R
Sampling rate : 48.0 kHz
Frame rate : 46.875 FPS (1024 SPF)
Compression mode : Lossy
Delay relative to video : -33 ms
Stream size : 53.3 MiB (1%)
Language : English
Default : Yes
Forced : No

Text
ID : 3
Format : UTF-8
Codec ID : S_TEXT/UTF8
Codec ID/Info : UTF-8 Plain Text
Duration : 1 h 19 min
Bit rate : 92 b/s
Count of elements : 1538
Stream size : 53.7 KiB (0%)
Language : English
Default : Yes
Forced : No


WEB-DL 720p Screenshots

No Man's Land (2017)

No Man's Land (2017)

No Man's Land (2017)


WEB-DL 1080p Screenshots

No Man's Land (2017)

No Man's Land (2017)

No Man's Land (2017)


Come Visit My Blog (•‿•)