Tags
Language
Tags
February 2024
Su Mo Tu We Th Fr Sa
28 29 30 31 1 2 3
4 5 6 7 8 9 10
11 12 13 14 15 16 17
18 19 20 21 22 23 24
25 26 27 28 29 1 2
Attention❗ To save your time, in order to download anything on this site, you must be registered 👉 HERE. If you do not have a registration yet, it is better to do it right away. ✌

( • )( • ) ( ͡⚆ ͜ʖ ͡⚆ ) (‿ˠ‿)
SpicyMags.xyz

Nat. Geo. - Egypt With the Worlds Greatest Explorer: No Man's Land (2019)

Posted By: Tutorial
720p (HD) / HDTV
Nat. Geo. - Egypt With the Worlds Greatest Explorer: No Man's Land (2019)

Nat. Geo. - Egypt With the Worlds Greatest Explorer: No Man's Land (2019)
HDTV | 1280 x 720 | .MP4/AVC @ 3200 Kbps | 44 min 28 s | 1.04 GB
Audio: English AAC 160 Kbps, 2 channels | Subs: English
Genre: Documentary

After weeks of adventure Ran and Joe have finally reached the end of their journey, to the south is the border with Sudan. In this episode, Joe skirts the crocodile infested waters of Lake Nasser and tries his hand at sailing a traditional Egyptian Felucca. Finally, Ran and Joe say goodbye to this incredible country and its lifeblood, the River Nile, just as Ran did half a century before.

General
Complete name : Egypt.With.The.Worlds.Greatest.Explorer.Series.1.Part.3.No.Mans.Land.mp4
Format : MPEG-4
Format profile : Base Media
Codec ID : isom (isom)
File size : 1.04 GiB
Duration : 44 min 28 s
Overall bit rate mode : Variable
Overall bit rate : 3 352 kb/s
Encoded date : UTC 2019-03-29 13:52:06
Tagged date : UTC 2019-03-29 13:52:06
Writing application : My MP4Box GUI 0.6.0.6

Video
ID : 1
Format : AVC
Format/Info : Advanced Video Codec
Format profile : High@L4.1
Format settings, CABAC : Yes
Format settings, ReFrames : 4 frames
Codec ID : avc1
Codec ID/Info : Advanced Video Coding
Duration : 44 min 28 s
Bit rate : 3 200 kb/s
Maximum bit rate : 24.7 Mb/s
Width : 1 280 pixels
Height : 720 pixels
Display aspect ratio : 16:9
Frame rate mode : Constant
Frame rate : 25.000 FPS
Color space : YUV
Chroma subsampling : 4:2:0
Bit depth : 8 bits
Scan type : Progressive
Bits/(Pixel*Frame) : 0.139
Stream size : 1 014 MiB (95%)
Title : Egypt.With.The.Worlds.Greatest.Explorer.Series.1.Part.3.No.Mans.Land.720p.HDTV.x264.AAC..org.mp4
Writing library : x264 core 130 r2273 b3065e6
Encoding settings : cabac=1 / ref=1 / deblock=1:0:0 / analyse=0x3:0x113 / me=hex / subme=2 / psy=1 / psy_rd=1.00:0.00 / mixed_ref=0 / me_range=16 / chroma_me=1 / trellis=0 / 8x8dct=1 / cqm=0 / deadzone=21,11 / fast_pskip=1 / chroma_qp_offset=0 / threads=6 / lookahead_threads=2 / sliced_threads=0 / nr=0 / decimate=1 / interlaced=0 / bluray_compat=0 / constrained_intra=0 / bframes=3 / b_pyramid=2 / b_adapt=1 / b_bias=0 / direct=1 / weightb=1 / open_gop=0 / weightp=1 / keyint=250 / keyint_min=25 / scenecut=40 / intra_refresh=0 / rc_lookahead=10 / rc=abr / mbtree=1 / bitrate=3200 / ratetol=1.0 / qcomp=0.60 / qpmin=0 / qpmax=69 / qpstep=4 / vbv_maxrate=62500 / vbv_bufsize=78125 / nal_hrd=none / ip_ratio=1.40 / aq=1:1.00
Encoded date : UTC 2019-03-29 12:33:39
Tagged date : UTC 2019-03-29 13:52:41
Color range : Limited
Color primaries : BT.709
Transfer characteristics : BT.709
Matrix coefficients : BT.709

Audio
ID : 2
Format : AAC
Format/Info : Advanced Audio Codec
Format profile : LC
Codec ID : 40
Duration : 44 min 28 s
Bit rate mode : Variable
Bit rate : 160 kb/s
Maximum bit rate : 310 kb/s
Channel(s) : 2 channels
Channel positions : Front: L R
Sampling rate : 48.0 kHz
Frame rate : 46.875 FPS (1024 spf)
Compression mode : Lossy
Stream size : 50.8 MiB (5%)
Title : Egypt.With.The.Worlds.Greatest.Explorer.Series.1.Part.3.No.Mans.Land.720p.HDTV.x264.AAC..org.mp4
Language : English
Encoded date : UTC 2019-03-29 13:52:35
Tagged date : UTC 2019-03-29 13:52:41

Text
ID : 3
Format : Timed Text
Codec ID : tx3g
Duration : 44 min 23 s
Bit rate mode : Variable
Bit rate : 120 b/s
Stream size : 39.0 KiB (0%)
Title : Egypt.With.The.Worlds.Greatest.Explorer.Series.1.Part.3.No.Mans.Land.720p.HDTV.x264.AAC..org.srt
Forced : No
Encoded date : UTC 2019-03-29 13:52:40
Tagged date : UTC 2019-03-29 13:52:41
Screenshots

Nat. Geo. - Egypt With the Worlds Greatest Explorer: No Man's Land (2019)

Nat. Geo. - Egypt With the Worlds Greatest Explorer: No Man's Land (2019)

Nat. Geo. - Egypt With the Worlds Greatest Explorer: No Man's Land (2019)

Welcome to my blog - daily update!